<?xml version="1.0" standalone="no"?>
<!DOCTYPE svg PUBLIC "-//W3C//DTD SVG 1.1//EN" "http://www.w3.org/Graphics/SVG/1.1/DTD/svg11.dtd" >
<svg>
<metadata>
Created by FontForge 20090914 at Mon Jun 13 22:27:11 2011
 By www-data
BlackKnight 4.1, Copyright 1991-92, Michal L. Wright
</metadata>
<defs>
<font id="BlackKnightFLF" horiz-adv-x="200" >
  <font-face 
    font-family="BlackKnightFLF"
    font-weight="500"
    font-stretch="normal"
    units-per-em="1000"
    panose-1="2 0 6 6 2 0 0 2 0 3"
    ascent="800"
    descent="-200"
    x-height="471.999"
    cap-height="627"
    bbox="-69.001 -200.004 993.998 800"
    underline-thickness="20"
    underline-position="-123"
    unicode-range="U+0005-U+E00D"
  />
<missing-glyph horiz-adv-x="500" 
 />
    <glyph glyph-name=".notdef" horiz-adv-x="500" 
 />
    <glyph glyph-name="breve" horiz-adv-x="248" 
d="M238 720l-10.498 -6c-7 -4 -16 -8.16699 -27 -12.5s-23 -8.5 -36 -12.5s-25.5 -6 -37.5 -6c-15.333 0 -32 3.16699 -50 9.5s-32.5 12.333 -43.5 18l-18.5 9.5l6.5 -11c4.33301 -7.33301 11 -15.333 20 -24s20.667 -16.667 35 -24s31.166 -11 50.499 -11
c16.667 0 32 3.66699 46 11s25.667 15.333 35 24s16.666 16.667 21.999 24z" />
    <glyph glyph-name="dotaccent" horiz-adv-x="151" 
d="M0 646c0 -4 3.33105 -9.66895 9.99805 -17.002s14.334 -14.666 23.001 -21.999s17 -13.666 25 -18.999s13 -8 15 -8c0.666992 0 4.33398 2.66699 11.001 8s13.667 11.666 21 18.999s14.166 14.5 20.499 21.5s9.5 12.5 9.5 16.5c0 2.66699 -3.33301 8.16699 -10 16.5
s-14 16.833 -22 25.5s-15.667 16.334 -23 23.001s-11.666 10 -12.999 10c-2 0 -6.66699 -3.83301 -14 -11.5s-15 -16.167 -23 -25.5s-15 -17.833 -21 -25.5z" />
    <glyph glyph-name="ring" horiz-adv-x="135" 
d="M126 654c0 20.667 -6.5 36.334 -19.5 47.001s-27.5 16 -43.5 16s-30.5 -5.33301 -43.5 -16s-19.5 -26.334 -19.5 -47.001s6.5 -36.167 19.5 -46.5s27.5 -15.5 43.5 -15.5s30.5 5.16699 43.5 15.5s19.5 25.833 19.5 46.5zM18 654c0 15.333 4.66699 26.833 14 34.5
s19.666 11.5 30.999 11.5s21.666 -3.83301 30.999 -11.5s14 -19.167 14 -34.5s-4.66699 -26.666 -14 -33.999s-19.666 -11 -30.999 -11s-21.666 3.66699 -30.999 11s-14 18.666 -14 33.999z" />
    <glyph glyph-name="hungarumlaut" unicode="&#xa;" horiz-adv-x="270" 
d="M139 697c0 0.666992 -1.16895 2.66699 -3.50195 6s-4.66602 6.5 -6.99902 9.5s-4.66602 5.33301 -6.99902 7s-3.5 1.5 -3.5 -0.5c0 -2.66699 -4.16699 -8.83398 -12.5 -18.501s-18.166 -20.5 -29.499 -32.5l-34.5 -36.5c-11.667 -12.333 -21.334 -22.166 -29.001 -29.499
l-12.5 -12c0.666992 0.666992 5.5 4.16699 14.5 10.5l34.5 25.5l41 31c13.333 10 24.833 19 34.5 27s14.5 12.333 14.5 13zM255.998 697c0 0.666992 -1.16895 2.66699 -3.50195 6s-4.66602 6.5 -6.99902 9.5s-4.66602 5.33301 -6.99902 7s-3.5 1.5 -3.5 -0.5
c0 -2.66699 -4.16699 -8.83398 -12.5 -18.501s-18.166 -20.5 -29.499 -32.5l-34.5 -36.5c-11.667 -12.333 -21.334 -22.166 -29.001 -29.499l-12.5 -12c0.666992 0.666992 5.5 4.16699 14.5 10.5l34.5 25.5l41 31c13.333 10 24.833 19 34.5 27s14.5 12.333 14.5 13z" />
    <glyph glyph-name="ogonek" horiz-adv-x="108" 
d="M72 2l-32.9951 0.00195312c-0.666992 0 -2.83398 -1.66699 -6.50098 -5s-7.66699 -7.5 -12 -12.5s-8.16602 -11 -11.499 -18s-5 -13.833 -5 -20.5c0 -7.33301 2 -14.333 6 -21s9 -12.5 15 -17.5s12 -9 18 -12s11 -4.5 15 -4.5c3.33301 0 7.66602 1 12.999 3
s10.666 4.5 15.999 7.5s9.83301 5.66699 13.5 8s5.5 4.16602 5.5 5.49902c0 -0.666992 -2.66699 -1 -8 -1c-6.66699 0 -13.334 1.33301 -20.001 4s-12.834 6.16699 -18.501 10.5s-10.334 9 -14.001 14s-5.5 9.5 -5.5 13.5c0 6 1.66699 11.667 5 17s7 10.166 11 14.499
s7.66699 7.83301 11 10.5z" />
    <glyph glyph-name="caron" horiz-adv-x="228" 
d="M222 717c0 2 -4.33203 0.666992 -12.999 -4s-18.334 -10.167 -29.001 -16.5l-29 -17.5c-8.66699 -5.33301 -13.334 -8 -14.001 -8s-5.33398 2.5 -14.001 7.5l-29 17l-29.5 17c-9 5 -13.833 7.5 -14.5 7.5c-2 0 -5.16699 -1.33301 -9.5 -4
s-8.66602 -5.83398 -12.999 -9.50098s-8.33301 -7.66699 -12 -12s-5.5 -8.16602 -5.5 -11.499c0 -1.33301 5.16699 -4.33301 15.5 -9s21.833 -9.5 34.5 -14.5l35 -14c10.667 -4.33301 16.334 -6.5 17.001 -6.5s6.66699 4 18 12l37.5 26l37.5 26.5
c11.333 8.33301 17 12.833 17 13.5z" />
    <glyph glyph-name="dotlessi" unicode="&#xd;" 
d="M67 122c0 -12 1 -23.499 3 -34.499s4 -21 6 -30s4 -16.5 6 -22.5s3 -10.333 3 -13c0 -7.33301 -1.16699 -12.833 -3.5 -16.5s-1.83301 -5.5 1.5 -5.5s11.166 3.5 23.499 10.5l39 23c13.667 8.33301 25.834 16.166 36.501 23.499s16 11.333 16 12
c0 2.66699 -4 3.66699 -12 3s-14 0 -18 2c-2.66699 0.666992 -5.33398 3.16699 -8.00098 7.5s-5 9.83301 -7 16.5s-3.66699 13.667 -5 21s-2 14.666 -2 21.999v253c0 4.66699 2.16699 8.5 6.5 11.5s6.5 5.5 6.5 7.5c0 1.33301 -3.33301 5.16602 -10 11.499l-22 20.5
c-8 7.33301 -15.833 13.833 -23.5 19.5s-12.5 8.5 -14.5 8.5c-2.66699 0 -5.83398 -3.16699 -9.50098 -9.5s-7.5 -11.833 -11.5 -16.5l-18 -18c-6.66699 -6.66699 -10 -10.667 -10 -12s1.33301 -2.66602 4 -3.99902s5.83398 -3.5 9.50098 -6.5s6.83398 -6.66699 9.50098 -11
s4 -10.166 4 -17.499v-256z" />
    <glyph glyph-name="fraction" horiz-adv-x="495" 
d="M299 472l-152.996 -0.00195312c0.666992 22.667 3.66699 40.834 9 54.501s11 24.167 17 31.5s11.667 12.333 17 15s8.66602 4 9.99902 4c4.66699 0 7 2 7 6c0 4.66699 -4.66699 7 -14 7c-8 0 -17.667 -3.66699 -29 -11s-22.833 -16.833 -34.5 -28.5
s-22.667 -24.5 -33 -38.5s-17.833 -28 -22.5 -42c-4 -3.33301 -9 -7.83301 -15 -13.5s-11.5 -11.5 -16.5 -17.5l-13 -16c-3.66699 -4.66699 -5.5 -7.33398 -5.5 -8.00098c0 -1.33301 4 -2.5 12 -3.5s18.667 -1.83301 32 -2.5v-262c0 -18.667 2.66699 -36.667 8 -54
s12.166 -32.833 20.499 -46.5s17.5 -24.5 27.5 -32.5s19.333 -12 28 -12v-11c3.33301 0 5.33301 0.166992 6 0.5l1 0.5l105 104l5 7c0 4 -1.66699 6 -5 6c-1.33301 0 -4.5 -2 -9.5 -6s-10.5 -8.16699 -16.5 -12.5l-18 -12.5c-6 -4 -11 -6 -15 -6
c-2.66699 0 -7.16699 3 -13.5 9s-12.833 14.667 -19.5 26s-12.5 25 -17.5 41s-7.5 34.333 -7.5 55v204c23.333 -0.666992 47.666 -1 72.999 -1h73v-259c0 -18.667 2.66699 -36.667 8 -54s12.166 -32.833 20.499 -46.5s17.333 -24.5 27 -32.5s18.834 -12 27.501 -12v-11
c3.33301 0 5.33301 0.166992 6 0.5l1 0.5l105 104l5 7c0 4 -1.66699 6 -5 6c-1.33301 0 -4.5 -2 -9.5 -6s-10.5 -8.16699 -16.5 -12.5l-18 -12.5c-6 -4 -11 -6 -15 -6c-2.66699 0 -7.16699 3 -13.5 9s-12.833 14.667 -19.5 26s-12.5 25 -17.5 41s-7.5 34.333 -7.5 55v204h47
c9.33301 -0.666992 17 1.83301 23 7.5s10.667 12.334 14 20.001s5.66602 15 6.99902 22s2 11.833 2 14.5c0 0.666992 -0.333008 1 -1 1h-92c0.666992 22.667 3.66699 40.834 9 54.501s11 24.167 17 31.5s11.667 12.333 17 15s8.66602 4 9.99902 4c4.66699 0 7 2 7 6
c0 4.66699 -4.66699 7 -14 7c-7.33301 0 -16.666 -3.5 -27.999 -10.5s-22.833 -16.167 -34.5 -27.5s-22.5 -24 -32.5 -38s-17.333 -28 -22 -42z" />
    <glyph glyph-name="fi" horiz-adv-x="426" 
d="M67 420l-0.000976562 -110.002c0 -2.66699 0.666992 -12.167 2 -28.5s3.16602 -36 5.49902 -59l7.5 -73.5c2.66699 -26 5.5 -50 8.5 -72s5.66699 -40.333 8 -55s4.5 -22 6.5 -22c1.33301 0 4.16602 4.83301 8.49902 14.5s8.83301 22.667 13.5 39s9.33398 35 14.001 56
s8.5 43 11.5 66s4.83301 46.167 5.5 69.5s-0.666016 45 -3.99902 65l-18 110h12c0.666992 0 3.33398 -0.666992 8.00098 -2s9.83398 -3.16602 15.501 -5.49902s8.5 -4.83301 8.5 -7.5c1.33301 2 4.33301 5.83301 9 11.5s9.5 12 14.5 19s9.5 13.833 13.5 20.5
s6 11.334 6 14.001c0 1.33301 -1 2 -3 2h-94c-2.66699 14 -5.5 30.333 -8.5 49s-4.5 33.667 -4.5 45c0 19.333 6.5 31.333 19.5 36s26.833 7 41.5 7c8.66699 0 16 -3.33301 22 -10s10.833 -13.834 14.5 -21.501s6.33398 -14.834 8.00098 -21.501s3.16699 -10 4.5 -10
c0.666992 0 2 1.83301 4 5.5l6.5 12l7.5 13.5c2.66699 4.66699 5.33398 8 8.00098 10c5.33301 4 11.833 8.33301 19.5 13s14 8.33398 19 11.001s7.83301 4.33398 8.5 5.00098l-10 4c-6.66699 2.66699 -14.334 7.33398 -23.001 14.001
c-12.667 9.33301 -21.334 18.666 -26.001 27.999l-7 14l-9 -7.5c-6 -5 -13.5 -10.667 -22.5 -17s-18.333 -12 -28 -17s-17.834 -7.5 -24.501 -7.5c-16 0 -29.167 -5.33301 -39.5 -16s-18.333 -24 -24 -40s-9.66699 -33.5 -12 -52.5s-3.5 -37.167 -3.5 -54.5
c-6.66699 -5.33301 -14 -12 -22 -20s-12 -16 -12 -24h34zM282.999 121.998c0 -12 1 -23.499 3 -34.499s4 -21 6 -30s4 -16.5 6 -22.5s3 -10.333 3 -13c0 -7.33301 -1.16699 -12.833 -3.5 -16.5s-1.83301 -5.5 1.5 -5.5s11.166 3.5 23.499 10.5l39 23
c13.667 8.33301 25.834 16.166 36.501 23.499s16 11.333 16 12c0 2.66699 -4 3.66699 -12 3s-14 0 -18 2c-2.66699 0.666992 -5.33398 3.16699 -8.00098 7.5s-5 9.83301 -7 16.5s-3.66699 13.667 -5 21s-2 14.666 -2 21.999v253c0 4.66699 2.16699 8.5 6.5 11.5
s6.5 5.5 6.5 7.5c0 1.33301 -3.33301 5.16602 -10 11.499l-22 20.5c-8 7.33301 -15.833 13.833 -23.5 19.5s-12.5 8.5 -14.5 8.5c-2.66699 0 -5.83398 -3.16699 -9.50098 -9.5s-7.5 -11.833 -11.5 -16.5l-18 -18c-6.66699 -6.66699 -10 -10.667 -10 -12
s1.33301 -2.66602 4 -3.99902s5.83398 -3.5 9.50098 -6.5s6.83398 -6.66699 9.50098 -11s4 -10.166 4 -17.499v-256zM293.999 564.999c4.66699 0 10.1689 -2.67188 16.502 -8.00488s12.333 -11.166 18 -17.499s10.667 -12.166 15 -17.499s7.16602 -8 8.49902 -8
c2.66699 0 6.5 2 11.5 6l16.5 13.5c6 5 12.167 9.5 18.5 13.5s11.833 6 16.5 6c0.666992 0 -1.33301 3.33301 -6 10s-10.334 13.834 -17.001 21.501l-19.5 21.5c-6.33301 6.66699 -10.833 10 -13.5 10c-7.33301 0 -15 -2.66699 -23 -8s-15.333 -11.166 -22 -17.499
s-12 -12.166 -16 -17.499s-5.33301 -8 -4 -8z" />
    <glyph glyph-name="fl" horiz-adv-x="390" 
d="M67 420l-0.000976562 -110.002c0 -2.66699 0.666992 -12.167 2 -28.5s3.16602 -36 5.49902 -59l7.5 -73.5c2.66699 -26 5.5 -50 8.5 -72s5.66699 -40.333 8 -55s4.5 -22 6.5 -22c1.33301 0 4.16602 4.83301 8.49902 14.5s8.83301 22.667 13.5 39s9.33398 35 14.001 56
s8.5 43 11.5 66s4.83301 46.167 5.5 69.5s-0.666016 45 -3.99902 65l-18 110h12c0.666992 0 3.33398 -0.666992 8.00098 -2s9.83398 -3.16602 15.501 -5.49902s8.5 -4.83301 8.5 -7.5c1.33301 2 4.33301 5.83301 9 11.5s9.5 12 14.5 19s9.5 13.833 13.5 20.5
s6 11.334 6 14.001c0 1.33301 -1 2 -3 2h-94c-2.66699 14 -5.5 30.333 -8.5 49s-4.5 33.667 -4.5 45c0 19.333 6.5 31.333 19.5 36s26.833 7 41.5 7c8.66699 0 16 -3.33301 22 -10s10.833 -13.834 14.5 -21.501s6.33398 -14.834 8.00098 -21.501s3.16699 -10 4.5 -10
c0.666992 0 2 1.83301 4 5.5l6.5 12l7.5 13.5c2.66699 4.66699 5.33398 8 8.00098 10c5.33301 4 11.833 8.33301 19.5 13s14 8.33398 19 11.001s7.83301 4.33398 8.5 5.00098l-10 4c-6.66699 2.66699 -14.334 7.33398 -23.001 14.001
c-12.667 9.33301 -21.334 18.666 -26.001 27.999l-7 14l-9 -7.5c-6 -5 -13.5 -10.667 -22.5 -17s-18.333 -12 -28 -17s-17.834 -7.5 -24.501 -7.5c-16 0 -29.167 -5.33301 -39.5 -16s-18.333 -24 -24 -40s-9.66699 -33.5 -12 -52.5s-3.5 -37.167 -3.5 -54.5
c-6.66699 -5.33301 -14 -12 -22 -20s-12 -16 -12 -24h34zM350.999 93.998l-0.000976562 468.995c0 3.33301 0.666992 12.333 2 27s5.16602 30 11.499 46s16.333 30.333 30 43s33.167 19 58.5 19c3.33301 0 4.33301 1.66699 3 5s-5.66602 5 -12.999 5
c-19.333 0 -39 -5.83301 -59 -17.5s-38.333 -28.667 -55 -51s-30.167 -49.833 -40.5 -82.5s-15.5 -69.667 -15.5 -111c0 -5.33301 -1.5 -9.66602 -4.5 -12.999s-6.5 -6 -10.5 -8s-7.5 -3.66699 -10.5 -5l-4.5 -2c0 -0.666992 1.5 -2.66699 4.5 -6s6.5 -7.5 10.5 -12.5
s7.5 -10.667 10.5 -17s4.5 -12.5 4.5 -18.5v-287c0 -5.33301 -2.16699 -9.16602 -6.5 -11.499s-6.5 -4.16602 -6.5 -5.49902s3.16699 -5.33301 9.5 -12s13.5 -13.667 21.5 -21s15.833 -14 23.5 -20s12.834 -9 15.501 -9c1.33301 0 5.16602 3.66699 11.499 11l20 24l19 24.5
c5.66699 7.66699 8.5 11.834 8.5 12.501c0 2 -2.33301 1 -7 -3s-8 -6 -10 -6c-1.33301 0 -5.16602 3.33301 -11.499 10s-9.5 14.334 -9.5 23.001z" />
    <glyph glyph-name="Lslash" horiz-adv-x="566" 
d="M207 365l-50 -28.0039c-4.66699 -3.33301 -9 -6.16602 -13 -8.49902s-6.66699 -5.16602 -8 -8.49902c-4 -8 -7 -17.667 -9 -29s-3 -22 -3 -32s0.333008 -18.167 1 -24.5s1.33398 -8.5 2.00098 -6.5c1.33301 4.66699 6.5 9.83398 15.5 15.501l26.5 16.5l38 22v-59
c0 -29.333 -1.16699 -51.5 -3.5 -66.5s-4.5 -24.167 -6.5 -27.5s-3.33301 -5 -4 -5c-1.33301 0.666992 -6 2 -14 4s-17.833 4.33301 -29.5 7s-21.167 4 -28.5 4c-15.333 0 -30.5 -3.5 -45.5 -10.5s-28.5 -16 -40.5 -27s-21.667 -23.167 -29 -36.5s-11 -26.333 -11 -39
c0 -10.667 3.16699 -19.5 9.5 -26.5s12.166 -12 17.499 -15s8.33301 -4.5 9 -4.5s0 0.833008 -2 2.5s-4.5 4.16699 -7.5 7.5s-5.83301 7.16602 -8.5 11.499s-4 9.5 -4 15.5c0 30.667 20.333 46 61 46c16.667 0 37.834 -3.83301 63.501 -11.5l81 -25
c28.333 -9 56.5 -17.167 84.5 -24.5s52.667 -11 74 -11c16 0 34.667 4.5 56 13.5s41.833 21.167 61.5 36.5s36.334 32.833 50.001 52.5s20.5 40.5 20.5 62.5c0 26 -5.33301 45.833 -16 59.5s-22.167 23.5 -34.5 29.5s-23.833 9 -34.5 9c-10 0 -14.667 -0.666992 -14 -2
c0 -1.33301 4.16699 -2.5 12.5 -3.5s17.166 -3.83301 26.499 -8.5s18 -12 26 -22s12 -24.333 12 -43c0 -18 -3.5 -33.833 -10.5 -47.5s-15.833 -25 -26.5 -34s-22.334 -15.667 -35.001 -20s-24.334 -6.5 -35.001 -6.5c-12.667 0 -29 1.83301 -49 5.5
s-40.167 8.16699 -60.5 13.5l-58.5 16c-18.667 5.33301 -33.5 9.83301 -44.5 13.5s-16.833 5.5 -17.5 5.5l13 11c8.66699 7.33301 18.167 16.166 28.5 26.499s19.833 20.833 28.5 31.5s13 19.334 13 26.001v112l48 27c5.33301 3.33301 9.83301 6 13.5 8s6.5 5.33301 8.5 10
c4 8 7 17.667 9 29s3.16699 22.166 3.5 32.499s0.166016 18.833 -0.500977 25.5s-1.66699 8.66699 -3 6c-1.33301 -4 -4.83301 -8.33301 -10.5 -13s-11.834 -9.33398 -18.501 -14.001l-50 -29v137c0 4 2.66699 13 8 27s13.833 28.5 25.5 43.5s26.167 28.333 43.5 40
s38 17.5 62 17.5c28.667 0 51.334 -6.83301 68.001 -20.5s25 -32.834 25 -57.501c0 -12.667 -1.83301 -23.5 -5.5 -32.5s-8.33398 -16.333 -14.001 -22s-11.834 -9.83398 -18.501 -12.501s-13 -4 -19 -4c-13.333 0 -23.666 2.16699 -30.999 6.5s-12 8.5 -14 12.5
s-3 6.33301 -3 7c3.33301 0 6.16602 1.83301 8.49902 5.5s3.5 7.5 3.5 11.5s-1.16699 7.83301 -3.5 11.5s-6.5 5.5 -12.5 5.5c-9.33301 0 -14.666 -3.66699 -15.999 -11s0.333984 -15.166 5.00098 -23.499s12.334 -16.166 23.001 -23.499s23.334 -11 38.001 -11
c12.667 0 23.667 2.5 33 7.5s17 11.833 23 20.5s10.5 18.334 13.5 29.001s4.5 21.667 4.5 33c0 22.667 -9.16699 42.667 -27.5 60s-45.5 26 -81.5 26c-26 0 -51.167 -7.66699 -75.5 -23s-46.333 -32.166 -66 -50.499s-36 -35.166 -49 -50.499s-21.5 -23 -25.5 -23h-25
c-8 0 -12 -2 -12 -6c0 -2.66699 2 -4.66699 6 -6s8.16699 -3.66602 12.5 -6.99902s8.5 -8.5 12.5 -15.5s6 -17.167 6 -30.5v-116z" />
    <glyph glyph-name="lslash" horiz-adv-x="261" 
d="M81 363l-45.0049 -26.0049c-4.66699 -3.33301 -8.83398 -6.16602 -12.501 -8.49902s-6.5 -5.16602 -8.5 -8.49902c-4 -8 -6.83301 -17.667 -8.5 -29s-2.66699 -22 -3 -32s-0.166016 -18.167 0.500977 -24.5s1.33398 -8.5 2.00098 -6.5
c2 4.66699 7.33301 9.83398 16 15.501s17.667 11.167 27 16.5l32 19v-202c0 -5.33301 -2.16699 -9.16602 -6.5 -11.499s-6.5 -4.16602 -6.5 -5.49902s3.16699 -5.33301 9.5 -12s13.5 -13.667 21.5 -21s15.833 -14 23.5 -20s13.167 -9 16.5 -9c1.33301 0 5 3.66699 11 11
l19.5 24l19 24.5c5.66699 7.66699 8.5 11.834 8.5 12.501c0 2 -2.33301 1 -7 -3s-8 -6 -10 -6c-1.33301 0 -5.16602 3.33301 -11.499 10s-9.5 14.334 -9.5 23.001v231l53 30c5.33301 3.33301 9.83301 6 13.5 8s6.83398 5.33301 9.50098 10c4 8 6.83301 17.667 8.5 29
s2.83398 22.166 3.50098 32.499s0.666992 18.833 0 25.5s-1.66699 8.66699 -3 6c-2 -4 -5.66699 -8.33301 -11 -13s-11.666 -9.33398 -18.999 -14.001l-55 -31v155c0 3.33301 0.666992 12.333 2 27s5.16602 30 11.499 46s16.333 30.333 30 43s33.167 19 58.5 19
c3.33301 0 4.33301 1.66699 3 5s-5.66602 5 -12.999 5c-19.333 0 -39 -5.83301 -59 -17.5s-38.167 -28.667 -54.5 -51s-29.833 -49.833 -40.5 -82.5s-16 -69.667 -16 -111v-83z" />
    <glyph glyph-name="Zcaron" horiz-adv-x="572" 
d="M460 717c0 2 -4.33105 0.666992 -12.998 -4s-18.334 -10.167 -29.001 -16.5l-29.5 -17.5c-9 -5.33301 -13.833 -8 -14.5 -8l-13 7.5l-29 17l-29.5 17c-9 5 -13.833 7.5 -14.5 7.5c-2 0 -5.16699 -1.33301 -9.5 -4s-8.83301 -5.83398 -13.5 -9.50098
s-8.83398 -7.66699 -12.501 -12s-5.5 -8.16602 -5.5 -11.499c0 -1.33301 5.16699 -4.33301 15.5 -9s21.833 -9.5 34.5 -14.5l35.5 -14c11 -4.33301 16.833 -6.5 17.5 -6.5s6.66699 4 18 12l37.5 26l37.5 26.5c11.333 8.33301 17 12.833 17 13.5zM325.002 243
c-14 -16.667 -28.502 -32.1816 -43.502 -46.5146s-29.167 -27 -42.5 -38s-25.166 -20.167 -35.499 -27.5s-18.5 -12.333 -24.5 -15c-12 -5.33301 -27.833 -11.333 -47.5 -18l-57.5 -20c-18.667 -6.66699 -34.834 -12.834 -48.501 -18.501s-20.5 -10.5 -20.5 -14.5l12.5 1.5
l29.5 3.5c11.333 1.33301 23 2.5 35 3.5s22 1.5 30 1.5c39.333 0 74 -3.5 104 -10.5s55.167 -16.333 75.5 -28s35.666 -25.334 45.999 -41.001s15.5 -32.167 15.5 -49.5l5 11c3.33301 7.33301 7.66602 15.166 12.999 23.499s11.333 16.166 18 23.499s13 11 19 11
c12 0 27.167 3 45.5 9s36.333 14.833 54 26.5s32.667 26.167 45 43.5s18.5 37 18.5 59c0 18.667 -6 35.834 -18 51.501s-29.667 23.5 -53 23.5c-4.66699 0 -10 -0.666992 -16 -2s-11.667 -4 -17 -8s-9.83301 -9.33301 -13.5 -16s-5.5 -15 -5.5 -25
c0 -13.333 5 -24.166 15 -32.499s21.667 -12.5 35 -12.5c6 0 11 2.16699 15 6.5s6 8.83301 6 13.5s-1.83301 8.83398 -5.5 12.501s-7.16699 5.83398 -10.5 6.50098c-6 0.666992 -10.667 -0.833008 -14 -4.5s-5 -7.16699 -5 -10.5c0 -1.33301 0.333008 -3.5 1 -6.5l1 -4.5
c-5.33301 0 -11 2.83301 -17 8.5s-9 12.834 -9 21.501c0 12.667 3.83301 22.667 11.5 30s16.5 11 26.5 11c15.333 0 28.833 -5.33301 40.5 -16s17.5 -27 17.5 -49c0 -17.333 -5.33301 -33.166 -16 -47.499s-23.5 -26.666 -38.5 -36.999s-30.167 -18.333 -45.5 -24
s-28 -8.5 -38 -8.5c-1.33301 0 -5.5 5.33301 -12.5 16s-16.833 22.334 -29.5 35.001s-28.167 24.334 -46.5 35.001s-39.166 16 -62.499 16c-14 0 -27.667 -0.833008 -41 -2.5s-30.333 -5.16699 -51 -10.5c8.66699 2.66699 19.334 7.66699 32.001 15s26.667 16.833 42 28.5
s31.5 24.667 48.5 39s33.5 29.833 49.5 46.5l36 -20.5c10.667 -6.33301 21.667 -9.5 33 -9.5c0 6 3.66699 12.5 11 19.5s15.5 13.5 24.5 19.5s17.167 11 24.5 15l11 6c-15.333 0 -30.666 2.33301 -45.999 7s-30.666 9.66699 -45.999 15c24.667 30 45 60 61 90
s24 58.667 24 86c0 28 -6 51.5 -18 70.5s-27 34.667 -45 47s-37.667 21.833 -59 28.5s-41.166 11.5 -59.499 14.5s-33.833 4.83301 -46.5 5.5s-19.334 1 -20.001 1c-3.33301 0 -5.83301 1.83301 -7.5 5.5s-3 7.66699 -4 12s-1.83301 8.33301 -2.5 12
s-1.33398 5.5 -2.00098 5.5c-2 0 -5.33301 -3.83301 -10 -11.5s-10 -17.167 -16 -28.5l-19 -36.5l-19 -36.5c-1.33301 -3.33301 -7.33301 -7.66602 -18 -12.999s-22 -12.166 -34 -20.499s-23 -18 -33 -29s-15 -23.167 -15 -36.5s4.33301 -24.166 13 -32.499
s18.667 -12.5 30 -12.5c15.333 0 28.833 3.83301 40.5 11.5s17.5 19.167 17.5 34.5c0 8 -3 14.833 -9 20.5s-13 8.5 -21 8.5c-11.333 0 -20.166 -2.83301 -26.499 -8.5s-9.5 -11.834 -9.5 -18.501c0 -4 1.5 -7.66699 4.5 -11s6.83301 -5 11.5 -5s8.66699 1.33301 12 4
s5 5.66699 5 9c0 5.33301 -0.833008 8.16602 -2.5 8.49902s-2.5 1.83301 -2.5 4.5c0 0.666992 0.833008 1.83398 2.5 3.50098s4.5 2.5 8.5 2.5s7.5 -2 10.5 -6s4.5 -8 4.5 -12c0 -11.333 -4.16699 -19.666 -12.5 -24.999s-18.833 -8 -31.5 -8
c-11.333 0 -19.5 3.5 -24.5 10.5s-7.5 13.833 -7.5 20.5c0 10 4.5 20.167 13.5 30.5s20 19.5 33 27.5s26.333 14.667 40 20s25.167 8 34.5 8c7.33301 0 18.166 -0.5 32.499 -1.5s30 -3 47 -6s34.667 -6.83301 53 -11.5s34.833 -10.667 49.5 -18
s26.834 -16.166 36.501 -26.499s14.5 -22.166 14.5 -35.499c0 -23.333 -4.83301 -46.666 -14.5 -69.999s-22.5 -46.333 -38.5 -69c-14.667 6.66699 -28.5 12.334 -41.5 17.001s-24.5 7 -34.5 7c-12.667 0 -25.334 -3.66699 -38.001 -11s-24 -15.166 -34 -23.499
s-18.167 -16.166 -24.5 -23.499l-9.5 -11l11.5 4.5c7.66699 3 22.834 4.5 45.501 4.5c17.333 0 32.833 -1.66699 46.5 -5s26.167 -7.66602 37.5 -12.999z" />
    <glyph glyph-name="zcaron" horiz-adv-x="266" 
d="M274 588c0 1.33301 -4.33105 -0.333984 -12.998 -5.00098l-29 -16l-29 -17c-8.66699 -5.33301 -13.334 -8 -14.001 -8s-5.33398 2.5 -14.001 7.5l-28.5 16.5l-29 16.5c-9 5 -13.833 7.5 -14.5 7.5c-2 0 -5.33301 -1.16699 -10 -3.5s-9.16699 -5.33301 -13.5 -9
s-8.33301 -7.66699 -12 -12s-5.5 -8.5 -5.5 -12.5c0 -1.33301 5.16699 -4.33301 15.5 -9s21.833 -9.5 34.5 -14.5l35.5 -14c11 -4.33301 16.833 -6.5 17.5 -6.5l8.5 5.5c5.66699 3.66699 12.5 8.33398 20.5 14.001l26 18.5l26 19l20 15c5.33301 4 8 6.33301 8 7zM69.002 463
c0 4.66699 0.663086 9.66113 1.99609 14.9941s1.33301 8 0 8c-2 0 -5.66699 -3 -11 -9s-10.666 -13 -15.999 -21s-10.166 -16.333 -14.499 -25s-6.5 -15.667 -6.5 -21c0 -16 4.83301 -28.333 14.5 -37s21.5 -15.334 35.5 -20.001s29 -7.5 45 -8.5s30.333 -1.5 43 -1.5
l-150 -150l12 4.5c8 3 16.667 4.5 26 4.5c4 0 12 -2 24 -6s24.5 -9.66699 37.5 -17s24.667 -16.5 35 -27.5s15.5 -23.5 15.5 -37.5c0 -9.33301 -4.5 -19.166 -13.5 -29.499s-19.5 -20 -31.5 -29s-23.667 -16.833 -35 -23.5l-24 -14c-26 -15.333 -45 -32 -57 -50
s-18 -36 -18 -54c0 -23.333 4 -41.666 12 -54.999s17 -23.166 27 -29.499s19.667 -10.166 29 -11.499s15.333 -2 18 -2c12 0 22.333 3 31 9s15.834 13 21.501 21s9.83398 16 12.501 24s4 14 4 18c0 3.33301 -0.666992 5 -2 5c-0.666992 0 -1.83398 -3.5 -3.50098 -10.5
s-5 -14.667 -10 -23s-11.667 -16 -20 -23s-19.5 -10.5 -33.5 -10.5c-4.66699 0 -11 1 -19 3s-16 6.33301 -24 13s-14.833 16 -20.5 28s-8.5 27.667 -8.5 47c0 12.667 2.66699 24 8 34s12.166 18.833 20.499 26.5s17.833 14.5 28.5 20.5s21.334 11.667 32.001 17
c12.667 6 28.334 14.167 47.001 24.5s36.5 21.833 53.5 34.5s31.667 26.334 44 41.001s18.5 29.667 18.5 45c0 17.333 -8.16699 32 -24.5 44s-34.5 21.833 -54.5 29.5s-38.167 13.334 -54.5 17.001l-24.5 5.5l166 166l-16.5 -6.5c-11 -4.33301 -24.833 -6.5 -41.5 -6.5
c-10 0 -22.5 1.5 -37.5 4.5s-29.167 7 -42.5 12s-24.833 10.833 -34.5 17.5s-14.5 13.334 -14.5 20.001z" />
    <glyph glyph-name="space" unicode=" " horiz-adv-x="225" 
 />
    <glyph glyph-name="exclam" unicode="!" horiz-adv-x="207" 
d="M74 41c0 -4 3.33008 -9.66895 9.99707 -17.002s14.334 -14.666 23.001 -21.999s17 -13.666 25 -18.999s13 -8 15 -8c0.666992 0 4.16699 2.66699 10.5 8s13.333 11.666 21 18.999s14.667 14.5 21 21.5s9.5 12.5 9.5 16.5c0 2.66699 -3.33301 8.16699 -10 16.5
s-14.167 16.833 -22.5 25.5s-16.166 16.334 -23.499 23.001s-11.666 10 -12.999 10c-2 0 -6.5 -3.83301 -13.5 -11.5l-22.5 -25.5c-8 -9.33301 -15 -17.833 -21 -25.5zM73.9971 510.998c0 -2.66699 1.66699 -12.335 5 -29.002l12 -60.5c4.66699 -23.667 10 -49 16 -76
l17 -75c5.33301 -23 10.166 -42 14.499 -57s7.16602 -22.5 8.49902 -22.5l5 22.5c3.33301 15 7.33301 34 12 57l15 74.5l14.5 75.5l11 60.5c3 16.667 4.5 26.334 4.5 29.001s-3.33301 8.16699 -10 16.5s-14.167 16.833 -22.5 25.5s-16.166 16.334 -23.499 23.001
s-11.666 10 -12.999 10c-2 0 -6.5 -3.83301 -13.5 -11.5l-22.5 -25.5c-8 -9.33301 -15 -17.833 -21 -25.5z" />
    <glyph glyph-name="quotedbl" unicode="&#x22;" horiz-adv-x="333" 
d="M290 630c0 2 -1.16504 5.33496 -3.49805 10.002s-5.33301 9.66699 -9 15s-7.33398 10 -11.001 14s-6.83398 6 -9.50098 6s-5.83398 -2 -9.50098 -6s-7.16699 -8.66699 -10.5 -14s-6.16602 -10.333 -8.49902 -15s-3.5 -8 -3.5 -10c0 -1.33301 1.16699 -8.5 3.5 -21.5
l8 -46l9.5 -54l8 -45c2 -11.667 3 -17.834 3 -18.501s0.833008 3.5 2.5 12.5l6 33.5c2.33301 13.333 5 27.833 8 43.5s5.66699 30.5 8 44.5l6 35c1.66699 9.33301 2.5 14.666 2.5 15.999zM181.002 630.002c0 2 -1.33203 5.33496 -3.99902 10.002l-9 15
c-3.33301 5.33301 -6.83301 10 -10.5 14s-6.83398 6 -9.50098 6s-5.83398 -2 -9.50098 -6s-7.16699 -8.66699 -10.5 -14s-6.16602 -10.333 -8.49902 -15s-3.5 -8 -3.5 -10c0 -1.33301 1.16699 -8.5 3.5 -21.5l8 -46l9.5 -54l8 -45c2 -11.667 3 -17.834 3 -18.501
s0.833008 3.5 2.5 12.5l6 33.5c2.33301 13.333 5 27.833 8 43.5s5.66699 30.5 8 44.5l6 35c1.66699 9.33301 2.5 14.666 2.5 15.999z" />
    <glyph glyph-name="numbersign" unicode="#" horiz-adv-x="563" 
d="M328 326l22.0068 86c1.33301 0 5.16602 0.333008 11.499 1s14.166 1.33398 23.499 2.00098s16.666 1 21.999 1c10.667 0 22 2.83301 34 8.5s22.833 12 32.5 19s16.834 13.333 21.501 19s5 8.16699 1 7.5c-8 -0.666992 -19.333 -1.5 -34 -2.5s-29.167 -1.83301 -43.5 -2.5
s-27 -1.33398 -38 -2.00098l-16.5 -1l33 128c-0.666992 -0.666992 -3.83398 -3.16699 -9.50098 -7.5s-12.5 -10.333 -20.5 -18s-14 -15.167 -18 -22.5l-21 -80h-103l33 128c-0.666992 -0.666992 -3.83398 -3.16699 -9.50098 -7.5s-12.334 -10.333 -20.001 -18
s-13.5 -15.167 -17.5 -22.5l-22 -80c-1.33301 0 -5.16602 -0.333008 -11.499 -1s-14.333 -1.33398 -24 -2.00098s-16.834 -1 -21.501 -1c-10 0 -20.833 -2.83301 -32.5 -8.5s-22.167 -12 -31.5 -19s-16.666 -13.333 -21.999 -19s-6.33301 -8.16699 -3 -7.5
c9.33301 1.33301 21.5 2.5 36.5 3.5s29.5 1.83301 43.5 2.5s26.167 1.16699 36.5 1.5l15.5 0.5l-23 -86c-1.33301 0 -5.16602 -0.333008 -11.499 -1s-14.333 -1.33398 -24 -2.00098s-16.834 -1 -21.501 -1c-10 0 -21 -3 -33 -9s-22.667 -12.5 -32 -19.5
s-16.5 -13.333 -21.5 -19s-5.83301 -8.16699 -2.5 -7.5c10 2 22.667 3.66699 38 5s30 2.33301 44 3s26 1 36 1h15l-34 -128c0.666992 0.666992 4.16699 3.33398 10.5 8.00098s13.833 11 22.5 19s15 16 19 24l2.5 12c1.66699 8 3.66699 16.833 6 26.5l6.5 26.5l3 12h103
l-35 -128c0.666992 0.666992 4.16699 3.33398 10.5 8.00098s13.666 11 21.999 19s14.5 16 18.5 24l20 77c1.33301 0 5.16602 0.333008 11.499 1s14.166 1.33398 23.499 2.00098s16.666 1 21.999 1c10 0 21.167 2.83301 33.5 8.5s23.333 12 33 19s16.834 13.333 21.501 19
s5 8.16699 1 7.5c-8 -0.666992 -19.333 -1.5 -34 -2.5s-29.167 -1.83301 -43.5 -2.5s-27 -1.33398 -38 -2.00098zM314.007 412l-22 -86h-103l22 86h103z" />
    <glyph glyph-name="dollar" unicode="$" horiz-adv-x="326" 
d="M112 121c-0.666992 0 -3.00098 0.836914 -7.00098 2.50391l-13.5 5.5l-7.5 3c-2 0 -3.83301 1.5 -5.5 4.5s-3 6.33301 -4 10s-1.83301 7 -2.5 10s-1.66699 4.5 -3 4.5c-2 0 -3.83301 -1.5 -5.5 -4.5s-3.33398 -6.16699 -5.00098 -9.5s-3.16699 -6.5 -4.5 -9.5
s-3 -4.5 -5 -4.5s-5.66699 -1.5 -11 -4.5s-10.666 -7.66699 -15.999 -14s-10 -14.166 -14 -23.499s-6 -20.333 -6 -33h7c8 0 17.167 -2.83301 27.5 -8.5s20.166 -11.834 29.499 -18.501s17.333 -12.834 24 -18.501l10 -8.5l-11 -110l33 25l9 94
c0.666992 0.666992 6.5 5.33398 17.5 14.001s25.167 21.5 42.5 38.5s34.166 36.167 50.499 57.5s30.5 45 42.5 71s18 52 18 78c0 14 -1.5 28 -4.5 42s-7.66699 26.833 -14 38.5s-15 21 -26 28s-24.5 10.5 -40.5 10.5c-3.33301 0 -9.33301 -3.33301 -18 -10s-16 -13 -22 -19
s-9.66699 -9.33301 -11 -10l15 157l9 -32c0.666992 0.666992 2.66699 3.5 6 8.5s7.83301 11.333 13.5 19l14.5 19.5c4.66699 4.66699 10.334 9.66699 17.001 15s13 10.166 19 14.499s10.833 8.16602 14.5 11.499s4.83398 5.66602 3.50098 6.99902
c-2 2 -8.16699 3.33301 -18.5 4s-19.833 2.66699 -28.5 6s-17.5 8.5 -26.5 15.5l-13.5 10.5l11 111l-34 -25l-7 -75l-7 -5.5c-4.66699 -3.66699 -10.5 -7.83398 -17.5 -12.501s-14.833 -9.5 -23.5 -14.5l-24 -13.5c-8 -4 -17.167 -9 -27.5 -15s-20 -13 -29 -21
s-16.667 -17.167 -23 -27.5s-9.5 -21.833 -9.5 -34.5v-102c0 -12 1.66699 -24.333 5 -37s8 -24 14 -34s13.167 -18.167 21.5 -24.5s17.833 -9.5 28.5 -9.5c4.66699 0 10.5 2.5 17.5 7.5s13.833 10.5 20.5 16.5s12.334 11.5 17.001 16.5l7 7.5zM139.999 105.004
l21.999 212.002l9.5 -7.5c6.33301 -5 13.333 -12.833 21 -23.5s14.667 -24.334 21 -41.001s9.5 -37 9.5 -61c0 -32 -4.5 -56.333 -13.5 -73s-17.5 -27.334 -25.5 -32.001s-12.667 -7 -14 -7c0 5.33301 -2.66699 10.666 -8 15.999s-10.166 9.33301 -14.499 12
s-6.83301 4.33398 -7.5 5.00098zM132.998 339.006c-0.666992 0 -2.33203 -0.5 -4.99902 -1.5s-6.5 -0.833008 -11.5 0.5s-9.5 5 -13.5 11l-3 11.5c-2 7.66699 -3 14.834 -3 21.501v162c0 7.33301 3.33301 11 10 11c4 0 9.66699 -2 17 -6s13.666 -7.83301 18.999 -11.5
s8.33301 -5.83398 9 -6.50098z" />
    <glyph glyph-name="percent" unicode="%" horiz-adv-x="632" 
d="M439 96c0 -13.333 3.00098 -25.3311 9.00098 -35.998s12.667 -19.5 20 -26.5s14.166 -12.333 20.499 -16s10.166 -5.5 11.499 -5.5c2 0 2.66699 -0.833008 2 -2.5s-1 -3.16699 -1 -4.5c0 -2.66699 1.66699 -4 5 -4c4 0 11.667 5 23 15s23 22.667 35 38
s22.833 32.166 32.5 50.499s14.5 36.166 14.5 53.499v59c0 12 -2.66699 23.667 -8 35s-11.333 21.5 -18 30.5s-13.167 16.167 -19.5 21.5s-10.5 8 -12.5 8c-1.33301 0 -2 1 -2 3s0.333008 4 1 6s-0.333008 3 -3 3c-1.33301 0 -7.66602 -2.33301 -18.999 -7
s-23.833 -11 -37.5 -19s-26 -17.833 -37 -29.5s-16.5 -24.5 -16.5 -38.5v-134zM492.001 276.002c0 7.33301 3.33105 11 9.99805 11c4.66699 0 10.167 -2.33301 16.5 -7s12.5 -10.5 18.5 -17.5s11.167 -14.5 15.5 -22.5s6.5 -15.667 6.5 -23v-109
c0 -18.667 -2.33301 -33.5 -7 -44.5s-8.66699 -16.5 -12 -16.5s-7.66602 2 -12.999 6s-10.666 9 -15.999 15s-9.83301 12.5 -13.5 19.5s-5.5 13.167 -5.5 18.5v170zM-2.00098 -4.99805c1.33301 -0.666992 5.66699 -1.83203 13 -3.49902s18 -1.83398 32 -0.500977
s28.333 6.33301 43 15l483 619c-1.33301 0.666992 -5.83301 1.66699 -13.5 3s-18.667 1.33301 -33 0s-28.833 -6.33301 -43.5 -15c-0.666992 -1.33301 -9.5 -12.833 -26.5 -34.5l-69 -88l-94 -120.5l-102.5 -131.5l-94 -121l-68.5 -88.5zM55 434.004
c0 -13.333 3.00098 -25.333 9.00098 -36s12.667 -19.5 20 -26.5s14.166 -12.333 20.499 -16s10.166 -5.5 11.499 -5.5c2 0 2.66699 -0.833008 2 -2.5s-1 -3.5 -1 -5.5c0 -2.66699 1.66699 -4 5 -4c4 0 11.667 5 23 15s23 22.667 35 38s22.833 32.333 32.5 51
s14.5 36.667 14.5 54v59c0 12 -2.66699 23.667 -8 35s-11.333 21.5 -18 30.5s-13.167 16.167 -19.5 21.5s-10.5 8 -12.5 8c-1.33301 0 -2 0.666992 -2 2c0 2 0.333008 4.16699 1 6.5s-0.333008 3.5 -3 3.5c-1.33301 0 -7.66602 -2.33301 -18.999 -7
s-23.833 -11.167 -37.5 -19.5s-26 -18.333 -37 -30s-16.5 -24.5 -16.5 -38.5v-133zM108.001 614.004c0 2.66699 0.831055 5.16699 2.49805 7.5s4.16699 3.5 7.5 3.5c4.66699 0 10.167 -2.33301 16.5 -7s12.5 -10.5 18.5 -17.5s11.167 -14.5 15.5 -22.5s6.5 -15.667 6.5 -23
v-110c0 -18 -2.33301 -32.5 -7 -43.5s-8.66699 -16.5 -12 -16.5s-7.66602 2 -12.999 6s-10.666 9 -15.999 15s-9.83301 12.5 -13.5 19.5s-5.5 13.167 -5.5 18.5v170z" />
    <glyph glyph-name="ampersand" unicode="&#x26;" horiz-adv-x="605" 
d="M366 195l-128.005 185.003l13.5 14c9 9.33301 18.667 20.833 29 34.5s20 27.834 29 42.501s13.5 27 13.5 37c0 18 -3.33301 34.333 -10 49s-14 27.5 -22 38.5s-15.833 19.5 -23.5 25.5s-12.5 9 -14.5 9c-12 0 -27.667 -2.66699 -47 -8s-38.333 -13.166 -57 -23.499
s-34.834 -23 -48.501 -38s-20.5 -31.833 -20.5 -50.5c0 -13.333 2.83301 -27.833 8.5 -43.5s11.834 -30.167 18.501 -43.5s12.834 -24.333 18.501 -33l8.5 -13l-21 -8c-14 -5.33301 -29.333 -14.333 -46 -27s-32 -29.334 -46 -50.001s-21 -46.334 -21 -77.001
c0 -28.667 4.66699 -56.334 14 -83.001s20.833 -50.167 34.5 -70.5s28.167 -36.666 43.5 -48.999s28.666 -18.5 39.999 -18.5c6 0 15.667 4.33301 29 13s27.666 19.167 42.999 31.5l45.5 38l36 31.5c9 8 13.833 12.333 14.5 13l11 -17l28.5 -42l38 -54.5l39.5 -54.5
c12.667 -16.667 23.834 -30.667 33.501 -42s16.5 -17 20.5 -17c8.66699 0 19.667 4.5 33 13.5s26 18.667 38 29s22 20 30 29s11.667 13.5 11 13.5c-3.33301 0 -8.83301 -1.5 -16.5 -4.5s-16.167 -4.5 -25.5 -4.5c-3.33301 0 -11.333 7.5 -24 22.5
s-26.834 32.833 -42.501 53.5l-47.5 64l-38.5 53.5c-9.66699 13.667 -14.834 21.167 -15.501 22.5l11.5 10.5c7.66699 7 16.334 17.333 26.001 31s18.334 30.5 26.001 50.5s11.5 43 11.5 69c0 0.666992 1.33301 1 4 1c3.33301 0 7.33301 0.166992 12 0.5s9.16699 1 13.5 2
s8.16602 2.83301 11.499 5.5c6 5.33301 11.833 13.5 17.5 24.5s10.334 21.333 14.001 31s5.5 17.167 5.5 22.5c0 6 -2.66699 6 -8 0c-6 -6.66699 -15.833 -10.334 -29.5 -11.001s-27.667 0 -42 2s-27.666 4.33301 -39.999 7s-20.166 4 -23.499 4
c-5.33301 0 -11 -5.33301 -17 -16s-11.333 -22 -16 -34s-7.66699 -22.333 -9 -31s0.333984 -11 5.00098 -7c2 2 5.83301 3.16699 11.5 3.5s11.667 0.166016 18 -0.500977s11.833 -1.33398 16.5 -2.00098l7 -1c0 -34 -1.66699 -61.167 -5 -81.5
s-7.16602 -35.833 -11.499 -46.5s-8.16602 -17.5 -11.499 -20.5zM140.995 366.003l150.998 -235.002l-11 -7c-7.33301 -4.66699 -16.666 -9.66699 -27.999 -15s-23.666 -10.333 -36.999 -15s-26.333 -7 -39 -7c-2 0 -8.5 1.83301 -19.5 5.5s-22.5 12.334 -34.5 26.001
s-23 33.5 -33 59.5s-15 61.333 -15 106c0 22 5.66699 39.333 17 52s22 20.834 32 24.501s15.667 5.5 17 5.5zM252.993 463.001c0 -20.667 -1.83301 -36.6689 -5.5 -48.002s-7 -18.5 -10 -21.5s-4.83301 -4.5 -5.5 -4.5l-13 16.5c-8.66699 11 -18.167 24.833 -28.5 41.5
s-19.833 34.334 -28.5 53.001s-13 36 -13 52c0 13.333 2.83301 24.333 8.5 33s11.5 13 17.5 13c8.66699 0 17.5 -5 26.5 -15s17.333 -22 25 -36s14 -28.667 19 -44s7.5 -28.666 7.5 -39.999z" />
    <glyph glyph-name="quotesingle" unicode="'" horiz-adv-x="216" 
d="M131 630c0 2 -1.16699 5.33496 -3.5 10.002s-5.16602 9.66699 -8.49902 15s-6.83301 10 -10.5 14s-6.83398 6 -9.50098 6s-5.83398 -2 -9.50098 -6s-7.16699 -8.66699 -10.5 -14s-6.16602 -10.333 -8.49902 -15s-3.5 -8 -3.5 -10c0 -1.33301 1.16699 -8.5 3.5 -21.5
l8 -46l9.5 -54l8 -45c2 -11.667 3 -17.834 3 -18.501s0.833008 3.5 2.5 12.5l6 33.5l7.5 43.5l7.5 44.5l6 35c1.66699 9.33301 2.5 14.666 2.5 15.999z" />
    <glyph glyph-name="parenleft" unicode="(" horiz-adv-x="243" 
d="M163 1l-13.5 22.001c-9 14.667 -19 34.667 -30 60s-21 54.833 -30 88.5s-13.5 69.834 -13.5 108.501c0 64.667 5.66699 122.667 17 174s23.833 94.666 37.5 129.999s26.167 62.5 37.5 81.5l17 28.5c-0.666992 -0.666992 -6.66699 -6.33398 -18 -17.001
s-26 -27.834 -44 -51.501s-35.333 -52.167 -52 -85.5s-31.167 -73 -43.5 -119s-18.5 -97 -18.5 -153c0 -49.333 4 -93.166 12 -131.499s16.667 -70.5 26 -96.5s18 -45.833 26 -59.5l12 -20.5z" />
    <glyph glyph-name="parenright" unicode=")" horiz-adv-x="243" 
d="M85 652l13.502 -21.9971c9 -14.667 19 -34.667 30 -60s21 -54.833 30 -88.5s13.5 -69.834 13.5 -108.501c0 -64.667 -5.66699 -122.5 -17 -173.5s-23.833 -94.333 -37.5 -130s-26.167 -62.834 -37.5 -81.501l-17 -28c0.666992 0.666992 6.66699 6.33398 18 17.001
s26 27.834 44 51.501s35.333 52 52 85s31.167 72.667 43.5 119s18.5 97.166 18.5 152.499c0 49.333 -3.83301 93.166 -11.5 131.499s-16.334 70.666 -26.001 96.999s-18.334 46.333 -26.001 60l-11.5 20.5z" />
    <glyph glyph-name="asterisk" unicode="*" horiz-adv-x="320" 
d="M302 292l-118.998 66l122 66c0 0.666992 -1.83301 1.66699 -5.5 3s-8 2.33301 -13 3l-14.5 2c-4.66699 0.666992 -7.66699 1 -9 1l-83 -62l15 132c0 2.66699 -2.16699 3.16699 -6.5 1.5s-9 -4.16699 -14 -7.5s-9.66699 -7 -14 -11s-6.5 -6.66699 -6.5 -8l2 -17l4.5 -37
l4.5 -36.5l2 -16.5l-82 62c-1.33301 0 -4.16602 -0.333008 -8.49902 -1s-9 -1.5 -14 -2.5s-9.33301 -2 -13 -3s-5.5 -1.83301 -5.5 -2.5l120 -66l-123 -66c0 -1.33301 1.83301 -2.5 5.5 -3.5s8 -1.83301 13 -2.5l14.5 -2c4.66699 -0.666992 8 -1 10 -1l82 63l-15 -133
c0 -2.66699 2.16699 -3.16699 6.5 -1.5s9.16602 4.16699 14.499 7.5s10.166 7 14.499 11s6.5 6.66699 6.5 8l-2 17c-1.33301 11.333 -3 23.833 -5 37.5s-3.66699 26 -5 37l-2 16.5l82 -63c1.33301 0 4.16602 0.5 8.49902 1.5s9 2 14 3s9.33301 2 13 3z" />
    <glyph glyph-name="plus" unicode="+" horiz-adv-x="490" 
d="M451 366c-4 -2.66699 -12.833 -4.33398 -26.5 -5.00098s-27.167 -1 -40.5 -1h-94v94c0 13.333 0.333008 26.833 1 40.5s2.33398 22.5 5.00098 26.5c-3.33301 0 -10.166 -3.66699 -20.499 -11s-21.166 -15.833 -32.499 -25.5s-21.333 -19.5 -30 -29.5s-13 -17.667 -13 -23
v-72h-71c-5.33301 0 -13 -4.33301 -23 -13s-19.833 -18.667 -29.5 -30s-18.167 -22.166 -25.5 -32.499s-11 -17.166 -11 -20.499c4 2.66699 12.833 4.33398 26.5 5.00098s27.167 1 40.5 1h93v-93c0 -13.333 -0.333008 -26.833 -1 -40.5s-2.33398 -22.5 -5.00098 -26.5
c3.33301 0 10.166 3.5 20.499 10.5s21.166 15.333 32.499 25s21.333 19.5 30 29.5s13 18 13 24v71h72c6 0 14 4.33301 24 13s19.833 18.667 29.5 30s18 22.166 25 32.499s10.5 17.166 10.5 20.499z" />
    <glyph glyph-name="comma" unicode="," horiz-adv-x="207" 
d="M85 45c1.33301 -0.666992 5.83301 -3.83398 13.5 -9.50098s15.834 -12.667 24.501 -21s13 -15.5 13 -21.5c0 -20.667 -2.5 -40 -7.5 -58s-9.5 -31.5 -13.5 -40.5s-6.33301 -14.167 -7 -15.5l15.5 16.5c10.333 11 21.666 25.167 33.999 42.5s23.666 36.333 33.999 57
s15.5 40.667 15.5 60c0 2.66699 -2.5 7.33398 -7.5 14.001s-10.833 13.5 -17.5 20.5s-13.167 13 -19.5 18s-10.833 7.5 -13.5 7.5c-6 0 -12.667 -3.66699 -20 -11s-14.166 -15.333 -20.499 -24s-11.833 -16.667 -16.5 -24z" />
    <glyph glyph-name="hyphen" unicode="-" horiz-adv-x="490" 
d="M450 366c-4 -2.66699 -12.833 -4.33398 -26.5 -5.00098s-27.167 -1 -40.5 -1h-254c-5.33301 0 -13 -4.33301 -23 -13s-19.833 -18.667 -29.5 -30s-18.167 -22.166 -25.5 -32.499s-11 -17.166 -11 -20.499c4 2.66699 12.833 4.33398 26.5 5.00098s27.167 1 40.5 1h254
c6 0 14 4.33301 24 13s19.833 18.667 29.5 30s18 22.166 25 32.499s10.5 17.166 10.5 20.499z" />
    <glyph glyph-name="period" unicode="." horiz-adv-x="207" 
d="M72 41c0 -4 3.33105 -9.66895 9.99805 -17.002s14.334 -14.666 23.001 -21.999s17 -13.666 25 -18.999s13 -8 15 -8c0.666992 0 4.33398 2.66699 11.001 8s13.667 11.666 21 18.999s14.166 14.5 20.499 21.5s9.5 12.5 9.5 16.5c0 2.66699 -3.33301 8.16699 -10 16.5
s-14 16.833 -22 25.5s-15.667 16.334 -23 23.001s-11.666 10 -12.999 10c-2 0 -6.66699 -3.83301 -14 -11.5s-15 -16.167 -23 -25.5s-15 -17.833 -21 -25.5z" />
    <glyph glyph-name="slash" unicode="/" horiz-adv-x="592" 
d="M0 0c1.33301 -0.666992 5.66699 -1.83203 13 -3.49902s18 -1.83398 32 -0.500977s28.333 6.33301 43 15l483 619c-1.33301 0.666992 -5.83301 1.66699 -13.5 3s-18.667 1.33301 -33 0s-28.833 -6.33301 -43.5 -15c-0.666992 -1.33301 -9.5 -12.833 -26.5 -34.5l-69 -88
l-94 -120.5l-102.5 -131.5l-94 -121l-68.5 -88.5z" />
    <glyph glyph-name="zero" unicode="0" horiz-adv-x="307" 
d="M25 140c0 -20 4.3291 -37.8359 12.9961 -53.5029s18.5 -28.667 29.5 -39s21.333 -18.333 31 -24s15.5 -8.5 17.5 -8.5s2.83301 -0.833008 2.5 -2.5s-0.666016 -3.66699 -0.999023 -6s-0.166016 -4.33301 0.500977 -6s3 -2.5 7 -2.5c3.33301 0 9.66602 3.33301 18.999 10
s19.833 15.834 31.5 27.501s23.834 25.334 36.501 41.001s24.167 32.167 34.5 49.5s18.833 35.166 25.5 53.499s10 35.833 10 52.5v239c0 18 -4 35.5 -12 52.5s-17 32 -27 45s-19.833 23.5 -29.5 31.5s-16.167 12 -19.5 12c-1.33301 0 -1.83301 1 -1.5 3l1 6
c0.333008 2 0.333008 4 0 6s-1.83301 3 -4.5 3c-1.33301 0 -6.16602 -1.5 -14.499 -4.5s-18.666 -7.33301 -30.999 -13s-25.333 -12.667 -39 -21s-26.5 -17.666 -38.5 -27.999s-21.833 -21.666 -29.5 -33.999s-11.5 -25.5 -11.5 -39.5v-350zM102.996 558.997
c0 4 1.33301 7.66602 4 10.999s6.66699 5 12 5c6.66699 0 14.667 -3.33301 24 -10s18.5 -15.167 27.5 -25.5s16.667 -21.5 23 -33.5s9.5 -23.333 9.5 -34v-315c0 -27.333 -3.33301 -49.166 -10 -65.499s-12.667 -24.5 -18 -24.5c-4.66699 0 -11 3 -19 9s-16 13.5 -24 22.5
s-14.833 18.667 -20.5 29s-8.5 19.5 -8.5 27.5v404z" />
    <glyph glyph-name="one" unicode="1" horiz-adv-x="181" 
d="M15 515c14.667 5.33301 25.333 6.66504 32 3.99805s10 -6.66699 10 -12v-513c0 -3.33301 -0.833008 -7.33301 -2.5 -12s-3.5 -9.16699 -5.5 -13.5l-5.5 -11.5c-1.66699 -3.33301 -2.16699 -5 -1.5 -5c4 0 11.167 5.16699 21.5 15.5s20.833 22.333 31.5 36
s20.167 27.334 28.5 41.001s12.5 23.834 12.5 30.501v514c0 10.667 0.333008 18.5 1 23.5l1.5 11c0.333008 2.33301 0.833008 3.83301 1.5 4.5s1 1.66699 1 3c0 3.33301 -4.33301 1.5 -13 -5.5s-19 -16.333 -31 -28l-37.5 -37l-31.5 -32z" />
    <glyph glyph-name="two" unicode="2" horiz-adv-x="304" 
d="M188 472c0 -55.333 -4.33789 -105.001 -13.0049 -149.001s-19.667 -83.167 -33 -117.5s-27.666 -63.833 -42.999 -88.5s-29.666 -45.334 -42.999 -62.001s-24.333 -29.5 -33 -38.5s-13 -14.5 -13 -16.5h192c4 0 11.333 4.33301 22 13s21.834 18.5 33.501 29.5
s22 21.833 31 32.5s13.5 18 13.5 22c-2.66699 0 -7 -1.16699 -13 -3.5s-17.333 -3.5 -34 -3.5h-136c-2.66699 -4 -0.833984 -1 5.49902 9s14.833 24.667 25.5 44l36.5 69c13.667 26.667 26.334 54.667 38.001 84s21.5 59.166 29.5 89.499s12 58.833 12 85.5
c0 16 -4 32.333 -12 49s-17 31.834 -27 45.501s-19.667 24.834 -29 33.501s-15.666 13 -18.999 13c-1.33301 0 -2 1 -2 3s0.333008 4 1 6s0.833984 4 0.500977 6s-1.83301 3 -4.5 3c-2 0 -11.667 -3.33301 -29 -10s-36 -16.167 -56 -28.5s-38.167 -27.166 -54.5 -44.499
s-24.5 -36.333 -24.5 -57v-49l78 49v69c0 4 1.16699 7.66699 3.5 11s6.16602 5 11.499 5c6.66699 0 14.834 -3 24.501 -9s19 -13.833 28 -23.5s16.667 -20.667 23 -33s9.5 -24.833 9.5 -37.5z" />
    <glyph glyph-name="three" unicode="3" horiz-adv-x="307" 
d="M103 191l-80.0029 -51.0029c0 -20 4.33301 -37.833 13 -53.5s18.5 -28.667 29.5 -39s21.333 -18.333 31 -24s15.5 -8.5 17.5 -8.5s2.83301 -0.833008 2.5 -2.5s-0.666016 -3.66699 -0.999023 -6s-0.166016 -4.33301 0.500977 -6s3 -2.5 7 -2.5
c3.33301 0 9.66602 3.33301 18.999 10s19.833 15.5 31.5 26.5s23.834 24.167 36.501 39.5s24.167 31.666 34.5 48.999s18.833 35.333 25.5 54s10 37 10 55c0 36 -5 64.5 -15 85.5s-21 37 -33 48s-23 18 -33 21l-15 4.5l15 9.5l33 22c12 8.33301 23 17 33 26s15 16.5 15 22.5
c0 15.333 -4 31.333 -12 48s-17 31.834 -27 45.501s-19.833 25 -29.5 34s-15.834 13.5 -18.501 13.5c-2 0 -2.83301 1 -2.5 3l1 6c0.333008 2 0.333008 4 0 6s-1.83301 3 -4.5 3c-1.33301 0 -6.16602 -1.5 -14.499 -4.5s-18.666 -7.33301 -30.999 -13
s-25.333 -12.667 -39 -21s-26.5 -17.666 -38.5 -27.999s-21.833 -21.666 -29.5 -33.999s-11.5 -25.5 -11.5 -39.5v-49l79 49v69c0 4 1.16699 7.66699 3.5 11s6.16602 5 11.499 5c6.66699 0 14.834 -3.33301 24.501 -10s19 -15 28 -25s16.667 -21 23 -33s9.5 -23.667 9.5 -35
s-4.5 -24.833 -13.5 -40.5s-19 -30.5 -30 -44.5s-21 -26 -30 -36l-13.5 -15l13.5 -5.5c9 -3.66699 19 -11.667 30 -24s21 -30.333 30 -54s13.5 -55.5 13.5 -95.5c0 -9.33301 -1 -19.166 -3 -29.499s-4.5 -20 -7.5 -29s-6 -16.5 -9 -22.5s-5.83301 -9 -8.5 -9
c-5.33301 0 -12 3 -20 9s-16 13.5 -24 22.5s-14.667 18.667 -20 29s-8 19.5 -8 27.5z" />
    <glyph glyph-name="four" unicode="4" horiz-adv-x="344" 
d="M243 631c0 2.66699 -4.83398 0.328125 -14.501 -7.00488s-21.167 -18.666 -34.5 -33.999c-17.333 -20 -35.333 -45.167 -54 -75.5s-36.167 -61.166 -52.5 -92.499s-31.166 -61.5 -44.499 -90.5l-31 -68.5c-7.33301 -16.667 -11.333 -25.667 -12 -27h159v-242
c0 -3.33301 -0.833008 -7.33301 -2.5 -12s-3.5 -9.16699 -5.5 -13.5s-3.66699 -8.16602 -5 -11.499s-1.66602 -5 -0.999023 -5c4 0 11.167 5.16699 21.5 15.5s20.666 22.333 30.999 36s19.666 27.334 27.999 41.001s12.5 23.834 12.5 30.501v161h31
c4.66699 0 11.667 4.33301 21 13s18.333 18.5 27 29.5s16.334 21.333 23.001 31s10 15.5 10 17.5c-2.66699 0 -8.16699 -2.16699 -16.5 -6.5s-19.5 -6.5 -33.5 -6.5h-62v275c0 10.667 0.333008 18.5 1 23.5l1.5 11c0.333008 2.33301 0.833008 3.83301 1.5 4.5s1 1.66699 1 3
zM158.999 313.994h-81.001c0.666992 1.33301 3.5 8 8.5 20l20 46.5l24 54.5c7.66699 17.333 14.334 31.833 20.001 43.5s8.5 16.167 8.5 13.5v-178z" />
    <glyph glyph-name="five" unicode="5" horiz-adv-x="321" 
d="M67 279c0 -10 -1.00098 -16.3301 -3.00098 -18.9971s-2 -4 0 -4c0.666992 0 2.66699 3.16699 6 9.5s7.83301 13.5 13.5 21.5s12.667 15.167 21 21.5s18.5 9.5 30.5 9.5c10 0 18.833 -5.66699 26.5 -17s14.334 -25.333 20.001 -42s9.83398 -34 12.501 -52s4 -34 4 -48
c0 -10.667 -1 -21.334 -3 -32.001s-4.5 -20.334 -7.5 -29.001s-6 -15.834 -9 -21.501s-5.83301 -8.5 -8.5 -8.5c-6.66699 0 -14.167 3.16699 -22.5 9.5s-16.166 14 -23.499 23s-13.5 18.667 -18.5 29s-7.5 19.5 -7.5 27.5c0 17.333 0.166992 27.5 0.5 30.5l0.5 4.5l-79 -52
c0 -16.667 3.83301 -32.5 11.5 -47.5s16.667 -28.333 27 -40s20.666 -21 30.999 -28s18.166 -10.5 23.499 -10.5c1.33301 0 1.5 -1 0.5 -3s-1.5 -4.33301 -1.5 -7c0 -2 1 -3.66699 3 -5s3.66699 -2 5 -2c3.33301 0 13.333 6.83301 30 20.5s34.334 31.667 53.001 54
s35.5 47.833 50.5 76.5s22.5 58 22.5 88c0 29.333 -4 54 -12 74s-17.333 36 -28 48s-21.334 20.5 -32.001 25.5s-18.667 7.5 -24 7.5c-8 0 -15.833 -3 -23.5 -9l-11.5 -9v179h93c11.333 0 24.166 4.66699 38.499 14s27.333 19.833 39 31.5s21 22.167 28 31.5
s9.16699 14 6.5 14c-2 0 -5.16699 -2.16699 -9.5 -6.5s-12.166 -6.5 -23.499 -6.5h-146l-104 -108v-243z" />
    <glyph glyph-name="six" unicode="6" horiz-adv-x="303" 
d="M136 406c6.66699 16.667 16.9951 36.666 30.9951 59.999s28.833 46.333 44.5 69s30.834 43.5 45.501 62.5s26.334 32.167 35.001 39.5l-17 -8.5c-10 -5 -21.333 -11 -34 -18s-20.667 -12.167 -24 -15.5c-26 -28.667 -51.167 -59.334 -75.5 -92.001
s-45.833 -66.167 -64.5 -100.5s-33.5 -68.666 -44.5 -102.999s-16.5 -67.166 -16.5 -98.499v-61c0 -20 4.33301 -37.833 13 -53.5s18.334 -28.667 29.001 -39s20.834 -18.333 30.501 -24s15.834 -8.5 18.501 -8.5c1.33301 0 2 -1 2 -3
c0 -1.33301 -0.166992 -3.16602 -0.5 -5.49902s0 -4.33301 1 -6s3.16699 -2.5 6.5 -2.5s9.66602 3.5 18.999 10.5s19.833 16.333 31.5 28s23.834 25.334 36.501 41.001s24.167 31.834 34.5 48.501s18.833 33.667 25.5 51s10 33.666 10 48.999c0 29.333 -4 55.166 -12 77.499
s-18.5 41.166 -31.5 56.499s-27.667 26.833 -44 34.5s-32.833 11.5 -49.5 11.5zM107.995 336.999c23.333 0 43.5 -12.668 60.5 -38.001s25.5 -63 25.5 -113v-29c0 -27.333 -3.5 -49.166 -10.5 -65.499s-12.833 -24.5 -17.5 -24.5s-11 3 -19 9s-16 13.5 -24 22.5
s-14.833 18.667 -20.5 29s-8.5 19.5 -8.5 27.5v63c0 20 0.666992 40 2 60s5.33301 39.667 12 59z" />
    <glyph glyph-name="seven" unicode="7" horiz-adv-x="303" 
d="M159 384h-57.0049c-4.66699 0 -11.167 -3.5 -19.5 -10.5s-16.5 -15.167 -24.5 -24.5s-15 -18.5 -21 -27.5s-9 -15.833 -9 -20.5l3.5 2c2.33301 1.33301 8.33301 2.83301 18 4.5s23.167 2.5 40.5 2.5h36l-46.5 -106.5l-40.5 -99c-12 -30.333 -21.667 -56.333 -29 -78
s-11 -36.167 -11 -43.5l113 82c0 2 1.33301 10 4 24s6.83398 32 12.501 54l20 76c7.66699 28.667 16.5 59 26.5 91h34c6 0 13.667 3.66699 23 11s18.5 15.666 27.5 24.999s16.667 18.5 23 27.5s9.5 15.5 9.5 19.5l-10 -4.5c-6.66699 -3 -20.334 -4.5 -41.001 -4.5h-41
c17.333 48.667 37 96.167 59 142.5s46 86.5 72 120.5c-0.666992 -0.666992 -3.16699 -2.5 -7.5 -5.5s-10.166 -6.16699 -17.499 -9.5s-14 -5 -20 -5c-21.333 0 -42.666 -0.333008 -63.999 -1s-41.166 -1.5 -59.499 -2.5s-34.333 -2.16699 -48 -3.5
s-23.167 -2.33301 -28.5 -3c-4 0 -10.333 -5.33301 -19 -16s-17.667 -23 -27 -37s-17.5 -28 -24.5 -42s-10.5 -24.333 -10.5 -31l9.5 8.5c6.33301 5.66699 17 11.667 32 18s34.833 12.333 59.5 18s55.334 8.5 92.001 8.5c4.66699 0 11 1.5 19 4.5s14.833 5.83301 20.5 8.5
s8.83398 4.33398 9.50098 5.00098c-2 -2 -5.66699 -8 -11 -18l-20 -38.5l-26.5 -54.5z" />
    <glyph glyph-name="eight" unicode="8" horiz-adv-x="307" 
d="M23 441c0 -4.66699 1.66504 -10.1709 4.99805 -16.5039s7.5 -12.666 12.5 -18.999s10.5 -12.833 16.5 -19.5s12 -12.667 18 -18l-17.5 -22c-6.33301 -8 -12 -16.333 -17 -25s-9.16699 -17.167 -12.5 -25.5s-5 -15.833 -5 -22.5v-133c0 -20 4.33301 -37.833 13 -53.5
s18.5 -28.667 29.5 -39s21.333 -18.333 31 -24s15.5 -8.5 17.5 -8.5s2.83301 -0.833008 2.5 -2.5s-0.666016 -3.66699 -0.999023 -6s-0.166016 -4.33301 0.500977 -6s3 -2.5 7 -2.5c3.33301 0 9.66602 3.33301 18.999 10s19.833 15.5 31.5 26.5s23.834 24.167 36.501 39.5
s24.167 31.666 34.5 48.999s18.833 35.333 25.5 54s10 37 10 55c0 21.333 -4.33301 41.333 -13 60s-18.5 35 -29.5 49s-21.333 25.5 -31 34.5s-15.834 14.5 -18.501 16.5l14.5 9c9.66699 6 20.167 13.333 31.5 22s21.833 17.334 31.5 26.001s14.5 16 14.5 22
c0 15.333 -4 31.333 -12 48s-17 31.834 -27 45.501s-19.833 25 -29.5 34s-15.834 13.5 -18.501 13.5c-2 0 -2.83301 1 -2.5 3l1 6c0.333008 2 0.333008 4 0 6s-1.83301 3 -4.5 3c-1.33301 0 -6.16602 -1.5 -14.499 -4.5s-18.666 -7.33301 -30.999 -13
s-25.333 -12.667 -39 -21s-26.5 -17.666 -38.5 -27.999s-21.833 -21.666 -29.5 -33.999s-11.5 -25.5 -11.5 -39.5v-49zM101.998 345.996l24.502 -20.501c11 -9 22.167 -21 33.5 -36s21.166 -33.333 29.499 -55s12.5 -47.5 12.5 -77.5c0 -9.33301 -1 -19.166 -3 -29.499
s-4.5 -20 -7.5 -29s-6 -16.5 -9 -22.5s-5.83301 -9 -8.5 -9c-5.33301 0 -12 3 -20 9s-15.833 13.5 -23.5 22.5s-14.334 18.667 -20.001 29s-8.5 19.5 -8.5 27.5v191zM173 405.995l-18 15.001c-8 6.66699 -16 14 -24 22s-14.833 16.167 -20.5 24.5s-8.5 15.833 -8.5 22.5v69
c0 4 1.16699 7.66699 3.5 11s6.16602 5 11.499 5c6.66699 0 14.834 -3.33301 24.501 -10s19 -15 28 -25s16.667 -21 23 -33s9.5 -23.667 9.5 -35c0 -10 -2.5 -20.333 -7.5 -31s-12.167 -22.334 -21.5 -35.001z" />
    <glyph glyph-name="nine" unicode="9" horiz-adv-x="307" 
d="M160 222c-7.33301 -16 -17.8311 -35.668 -31.498 -59.001s-28.334 -46.5 -44.001 -69.5s-30.834 -44 -45.501 -63s-26.334 -32.167 -35.001 -39.5l17 8.5c10 5 21.333 11 34 18s20.667 12.167 24 15.5c26 28.667 51.167 59.334 75.5 92.001s45.833 66.167 64.5 100.5
s33.5 68.666 44.5 102.999s16.5 67.166 16.5 98.499v44c0 18 -4 35.5 -12 52.5s-17 32 -27 45s-19.833 23.5 -29.5 31.5s-15.834 12 -18.501 12c-2 0 -2.83301 1 -2.5 3l1 6c0.333008 2 0.333008 4 0 6s-1.83301 3 -4.5 3c-1.33301 0 -6.16602 -1.5 -14.499 -4.5
s-18.666 -7.33301 -30.999 -13s-25.333 -12.667 -39 -21s-26.5 -17.666 -38.5 -27.999s-21.833 -21.666 -29.5 -33.999s-11.5 -25.5 -11.5 -39.5v-88c0 -17.333 4 -36.5 12 -57.5s18.5 -40.5 31.5 -58.5s27.667 -33.167 44 -45.5s32.833 -18.5 49.5 -18.5zM188.002 290.999
c-23.333 0 -43.5 12.6689 -60.5 38.002s-25.5 63 -25.5 113v117c0 4 1.16699 7.66699 3.5 11s6.16602 5 11.499 5c6.66699 0 14.834 -3.83301 24.501 -11.5s19 -16.834 28 -27.501s16.667 -21.834 23 -33.501s9.5 -21.5 9.5 -29.5v-63c0 -20 -0.666992 -40 -2 -60
s-5.33301 -39.667 -12 -59z" />
    <glyph glyph-name="colon" unicode=":" horiz-adv-x="207" 
d="M70 41c0 -4 3.33105 -9.66895 9.99805 -17.002s14.334 -14.666 23.001 -21.999s17 -13.666 25 -18.999s13 -8 15 -8c0.666992 0 4.33398 2.66699 11.001 8s13.667 11.666 21 18.999s14.166 14.5 20.499 21.5s9.5 12.5 9.5 16.5c0 2.66699 -3.33301 8.16699 -10 16.5
s-14 16.833 -22 25.5s-15.667 16.334 -23 23.001s-11.666 10 -12.999 10c-2 0 -6.66699 -3.83301 -14 -11.5s-14.833 -16.167 -22.5 -25.5l-21 -25.5zM69.998 256.998c0 -4 3.33105 -9.66895 9.99805 -17.002s14.334 -14.666 23.001 -21.999s17 -13.666 25 -18.999
s13 -8 15 -8c0.666992 0 4.33398 2.66699 11.001 8s13.667 11.666 21 18.999s14.166 14.5 20.499 21.5s9.5 12.5 9.5 16.5c0 2.66699 -3.33301 8.16699 -10 16.5s-14 16.833 -22 25.5s-15.667 16.334 -23 23.001s-11.666 10 -12.999 10c-2 0 -6.66699 -3.83301 -14 -11.5
s-14.833 -16.167 -22.5 -25.5l-21 -25.5z" />
    <glyph glyph-name="semicolon" unicode=";" horiz-adv-x="207" 
d="M85 45c1.33301 -0.666992 5.83301 -3.83398 13.5 -9.50098s15.834 -12.667 24.501 -21s13 -15.5 13 -21.5c0 -20.667 -2.5 -40 -7.5 -58s-9.5 -31.5 -13.5 -40.5s-6.33301 -14.167 -7 -15.5l15.5 16.5c10.333 11 21.666 25.167 33.999 42.5s23.666 36.333 33.999 57
s15.5 40.667 15.5 60c0 2.66699 -2.5 7.33398 -7.5 14.001s-10.833 13.5 -17.5 20.5s-13.167 13 -19.5 18s-10.833 7.5 -13.5 7.5c-6 0 -12.667 -3.66699 -20 -11s-14.166 -15.333 -20.499 -24s-11.833 -16.667 -16.5 -24zM85 257c0 -4 3.3291 -9.66895 9.99609 -17.002
s14.167 -14.666 22.5 -21.999s16.5 -13.666 24.5 -18.999s13 -8 15 -8c0.666992 0 4.33398 2.66699 11.001 8s13.834 11.666 21.501 18.999s14.667 14.5 21 21.5s9.5 12.5 9.5 16.5c0 2.66699 -3.33301 8.16699 -10 16.5s-14.167 16.833 -22.5 25.5
s-16.166 16.334 -23.499 23.001s-11.666 10 -12.999 10c-2 0 -6.5 -3.83301 -13.5 -11.5l-22.5 -25.5c-8 -9.33301 -15 -17.833 -21 -25.5z" />
    <glyph glyph-name="less" unicode="&#x3c;" horiz-adv-x="298" 
d="M0 270c0 -1.33301 3.49805 -9.00098 10.498 -23.001l26 -51.5l33.5 -65l34 -63.5l27.5 -48.5c7.66699 -13 11.834 -19.167 12.501 -18.5s5.66699 4.33398 15 11.001l30 22l29 22c8.66699 6.66699 13.334 10 14.001 10s-2.83301 6.66699 -10.5 20l-28.5 49.5l-37.5 64.5
l-38 65.5l-29.5 51c-8 13.667 -12 21.167 -12 22.5s4 7.33301 12 18s18.167 23.5 30.5 38.5l39 48l38 47c11.667 14.333 21 26.333 28 36s9.83301 14.5 8.5 14.5s-8 -6.33301 -20 -19l-44 -48l-55.5 -63.5l-54.5 -64.5l-41.5 -51c-11 -14 -16.5 -22 -16.5 -24z" />
    <glyph glyph-name="equal" unicode="=" horiz-adv-x="490" 
d="M450 454c-4 -3.33301 -12.833 -5.33594 -26.5 -6.00293s-27.167 -1 -40.5 -1h-254c-5.33301 0 -13 -4.33301 -23 -13s-19.833 -18.667 -29.5 -30s-18.167 -22.166 -25.5 -32.499s-11 -17.166 -11 -20.499c4 2.66699 12.833 4.33398 26.5 5.00098s27.167 1 40.5 1h254
c6 0 14 4.33301 24 13s19.833 18.667 29.5 30s18 22.333 25 33s10.5 17.667 10.5 21zM450 282.997c-4 -3.33301 -12.833 -5.33594 -26.5 -6.00293s-27.167 -1 -40.5 -1h-254c-5.33301 0 -13 -4.33301 -23 -13s-19.833 -18.667 -29.5 -30s-18.167 -22.166 -25.5 -32.499
s-11 -17.166 -11 -20.499c4 2.66699 12.833 4.33398 26.5 5.00098s27.167 1 40.5 1h254c6 0 14 4.33301 24 13s19.833 18.667 29.5 30s18 22.333 25 33s10.5 17.667 10.5 21z" />
    <glyph glyph-name="greater" unicode="&#x3e;" horiz-adv-x="294" 
d="M232 270c0 1.33301 -3.49707 9.00098 -10.4971 23.001l-26 51.5l-33.5 65l-34 63.5c-10.667 19.333 -19.834 35.333 -27.501 48s-11.834 19 -12.501 19c-1.33301 -0.666992 -6.5 -4.33398 -15.5 -11.001l-29.5 -22l-29 -22c-8.66699 -6.66699 -13.334 -10 -14.001 -10
s2.83301 -6.66699 10.5 -20l29 -49.5l38 -64.5l38 -65.5l29.5 -51c8 -13.667 12 -21.167 12 -22.5c0 -2 -4.16699 -8.16699 -12.5 -18.5l-31 -38l-39.5 -48l-38.5 -47c-11.667 -14.333 -21 -26.333 -28 -36s-9.5 -14.5 -7.5 -14.5c1.33301 -0 8 6.33301 20 19l44 48
l55.5 63.5l54.5 64.5l41.5 51c11 14 16.5 22 16.5 24z" />
    <glyph glyph-name="question" unicode="?" horiz-adv-x="315" 
d="M94 41c0 -4 3.3291 -9.66895 9.99609 -17.002s14.167 -14.666 22.5 -21.999s16.5 -13.666 24.5 -18.999s13 -8 15 -8c0.666992 0 4.33398 2.66699 11.001 8s13.834 11.666 21.501 18.999s14.667 14.5 21 21.5s9.5 12.5 9.5 16.5c0 2.66699 -3.33301 8.16699 -10 16.5
s-14.167 16.833 -22.5 25.5s-16.166 16.334 -23.499 23.001s-11.666 10 -12.999 10c-2 0 -6.5 -3.83301 -13.5 -11.5l-22.5 -25.5c-8 -9.33301 -15 -17.833 -21 -25.5zM63.9961 498.998c0 -2 0.831055 -2.16992 2.49805 -0.50293s4.33398 4.16699 8.00098 7.5
s8.5 6.5 14.5 9.5s13.667 4.5 23 4.5c27.333 0 49.833 -1 67.5 -3s31.667 -6.16699 42 -12.5s17.5 -15.833 21.5 -28.5s6 -29.334 6 -50.001c0 -16.667 -7.33301 -33.167 -22 -49.5s-30.834 -31.166 -48.501 -44.499s-33.834 -24.833 -48.501 -34.5s-22 -16.167 -22 -19.5
c0 -5.33301 2.33301 -14 7 -26s9.83398 -24.5 15.501 -37.5l15.5 -36.5c4.66699 -11.333 7 -19 7 -23l9.5 8.5c6.33301 5.66699 13.5 12.667 21.5 21l24 26c8 9 14 17.167 18 24.5c0 1.33301 -1.66699 5.5 -5 12.5l-11 23.5c-4 8.66699 -7.66699 17.334 -11 26.001
s-5 15.667 -5 21c0 2.66699 6.33301 7.83398 19 15.501s26.834 18 42.501 31s29.834 28.833 42.501 47.5s19 40.667 19 66c0 20.667 -3.5 37.834 -10.5 51.501s-16 24.667 -27 33s-23.167 14.166 -36.5 17.499s-26 5 -38 5c-10.667 0 -21.5 -0.166992 -32.5 -0.5
s-20.167 -2.16602 -27.5 -5.49902c1.33301 2.66699 2.33301 5.16699 3 7.5s0.666992 3.5 0 3.5c-2 0 -7.5 -4.66699 -16.5 -14s-18.5 -19.833 -28.5 -31.5l-27 -31.5z" />
    <glyph glyph-name="at" unicode="@" horiz-adv-x="670" 
d="M319 214c0.666992 0 4.6709 -4.50195 12.0039 -13.502s16.833 -18.833 28.5 -29.5s25 -20.5 40 -29.5s30.5 -13.5 46.5 -13.5c13.333 0 28 1.16699 44 3.5s31 8.83301 45 19.5s25.5 27 34.5 49s12.833 52.667 11.5 92c-1.33301 42.667 -8.66602 82 -21.999 118
s-32.166 67 -56.499 93s-54.333 46.167 -90 60.5s-75.834 21.5 -120.501 21.5c-36.667 0 -72.5 -6.83301 -107.5 -20.5s-66.167 -33.167 -93.5 -58.5s-49.333 -56 -66 -92s-25 -76.667 -25 -122c0.666992 -51.333 10.667 -95.5 30 -132.5s44.166 -67.333 74.499 -91
s64.5 -41 102.5 -52s75.667 -16.5 113 -16.5c20 0 41.167 3.66699 63.5 11s42.666 15.666 60.999 24.999s33.666 18.333 45.999 27s18.5 14.334 18.5 17.001l-16.5 -9c-11 -6 -25.333 -12.667 -43 -20s-37.834 -14 -60.501 -20s-45.667 -9 -69 -9
c-25.333 0 -54.166 4.33301 -86.499 13s-62.833 23.334 -91.5 44.001s-52.834 48.334 -72.501 83.001s-29.5 78 -29.5 130c0 40 6.33301 75.667 19 107s30.167 57.833 52.5 79.5s48.833 38 79.5 49s64.334 16.5 101.001 16.5s70.5 -6.16699 101.5 -18.5
s57.667 -29.666 80 -51.999s39.666 -49 51.999 -80s18.5 -64.833 18.5 -101.5s-4.33301 -63.5 -13 -80.5s-18.334 -28.5 -29.001 -34.5s-20.5 -8.5 -29.5 -7.5s-13.833 1.5 -14.5 1.5c-12 0 -23.333 3.83301 -34 11.5s-19.834 16.5 -27.501 26.5s-13.667 20.167 -18 30.5
s-6.5 18.166 -6.5 23.499v130c0 2.66699 0.5 6.83398 1.5 12.501s5.83301 15.167 14.5 28.5c0 0.666992 -1.16699 1.33398 -3.5 2.00098s-5.5 1.83398 -9.5 3.50098s-8 3.66699 -12 6s-7.33301 5.16602 -10 8.49902c-3.33301 4.66699 -6.16602 10.5 -8.49902 17.5
s-5.16602 10.5 -8.49902 10.5s-9 -2.66699 -17 -8l-23 -16c-4 -3.33301 -10 -6.33301 -18 -9s-16.667 -6 -26 -10s-18.5 -8.83301 -27.5 -14.5s-16.5 -12.834 -22.5 -21.501c-3.33301 -4 -5.83301 -10.5 -7.5 -19.5s-3 -18.5 -4 -28.5s-1.66699 -19.833 -2 -29.5
s-0.5 -17.167 -0.5 -22.5v-83c0 -10.667 2.5 -21.667 7.5 -33s10.667 -21.5 17 -30.5s12.5 -16.333 18.5 -22s9.66699 -8.5 11 -8.5c2 0 5.66699 2.16699 11 6.5l17 14.5c6 5.33301 11.667 10.666 17 15.999l11 11c2 2 4 5.16699 6 9.5l6 13.5l5 12
c1.33301 3.33301 2.66602 5 3.99902 5zM312.004 282.998c0 -12 -1.33008 -23.8311 -3.99707 -35.498s-5.83398 -22.167 -9.50098 -31.5s-7.16699 -16.833 -10.5 -22.5s-6 -8.5 -8 -8.5c-2.66699 0 -5.83398 1.16699 -9.50098 3.5s-7.33398 6.66602 -11.001 12.999
s-6.66699 14.666 -9 24.999s-3.5 23.5 -3.5 39.5v110c0 13.333 2.83301 26.166 8.5 38.499s15.167 19.5 28.5 21.5c1.33301 0 4.83301 -2 10.5 -6s9.5 -7.66699 11.5 -11c2 -2.66699 3.5 -7.66699 4.5 -15s1.5 -14.666 1.5 -21.999v-99z" />
    <glyph glyph-name="A" unicode="A" horiz-adv-x="614" 
d="M53 427l-15.999 23.501c-5.33301 7.66699 -8 18.834 -8 33.501c0 12.667 3.66699 23.834 11 33.501s17 17.834 29 24.501s25.667 11.667 41 15s31 5 47 5c22.667 0 44 -2.5 64 -7.5s38.833 -11 56.5 -18s33.834 -14.333 48.501 -22s27.667 -14.167 39 -19.5l-141 -105
l3 -12.5c2 -8.33301 3 -15.5 3 -21.5v-239c0 -17.333 -4.83301 -33 -14.5 -47s-21.667 -26.333 -36 -37s-29.833 -18.834 -46.5 -24.501s-32.334 -8.5 -47.001 -8.5c-1.33301 0 -6 0.166992 -14 0.5s-16.5 2.16602 -25.5 5.49902s-17 8.66602 -24 15.999
s-10.5 17.666 -10.5 30.999c0 10.667 3.5 19.834 10.5 27.501s13.5 13.167 19.5 16.5s9.33301 5.33301 10 6c-1.33301 0 -4.83301 -0.666992 -10.5 -2s-11.5 -4.16602 -17.5 -8.49902s-11.5 -10.333 -16.5 -18s-7.5 -17.834 -7.5 -30.501c0 -20 7.83301 -35.5 23.5 -46.5
s36.167 -16.5 61.5 -16.5c32.667 0 62.667 6.5 90 19.5s51 27.5 71 43.5s35.5 31.167 46.5 45.5s16.5 23.166 16.5 26.499v96l4.5 4c3 2.66699 6.16699 4 9.5 4c4.66699 0 10 -1.33301 16 -4s12.167 -5.83398 18.5 -9.50098s12.333 -6.83398 18 -9.50098s10.5 -4 14.5 -4
c2.66699 0 6.16699 2 10.5 6l15.5 14.5c6 5.66699 12.667 11.167 20 16.5s15.333 9.33301 24 12c3.33301 1.33301 1.5 4.66602 -5.5 9.99902s-15.167 11 -24.5 17s-18.333 11.5 -27 16.5l-13 7.5c-4 0 -10.333 -3.83301 -19 -11.5l-27 -25l-24.5 -24.5l-10.5 -11v148
c0 17.333 3.66699 33.5 11 48.5s15.166 27.833 23.499 38.5s16.166 19 23.499 25l11 9c5.33301 -2.66699 13.166 -4.66699 23.499 -6s20.5 -2.33301 30.5 -3s18.667 -1 26 -1h11v-381c0 -5.33301 -2.16699 -9.5 -6.5 -12.5s-9 -5.5 -14 -7.5s-9.66699 -4 -14 -6
s-6.5 -4 -6.5 -6s1.5 -4 4.5 -6s6.5 -3.83301 10.5 -5.5l13 -5.5c4.66699 -2 8.66699 -4.33301 12 -7c4.66699 -4 9 -9 13 -15s7.5 -11.667 10.5 -17s6 -10 9 -14s6.16699 -6 9.5 -6s6.33301 1.83301 9 5.5s5.33398 8.16699 8.00098 13.5s5.66699 10.833 9 16.5
s7.66602 10.167 12.999 13.5c4 2.66699 9 4.83398 15 6.50098s11.833 3 17.5 4s10.334 2 14.001 3s5.5 2.5 5.5 4.5c0 3.33301 -2.83301 7 -8.5 11l-18 13c-6.33301 4.66699 -12.333 10 -18 16s-8.5 13 -8.5 21v370c0 0.666992 4 2 12 4s16.833 6.16699 26.5 12.5
s18.5 15.333 26.5 27s12 27.167 12 46.5c0 8.66699 -2.33301 15.834 -7 21.501s-10.167 10 -16.5 13s-12.5 4.83301 -18.5 5.5s-10.333 0.666992 -13 0c0.666992 -0.666992 3.66699 -2.5 9 -5.5s11 -7.33301 17 -13s9.33301 -11.167 10 -16.5
c1.33301 -13.333 -2.66699 -23.5 -12 -30.5s-28 -10.5 -56 -10.5c-20.667 0 -44.167 4.33301 -70.5 13l-83.5 28c-29.333 10 -59.666 19.333 -90.999 28s-62.333 13 -93 13c-35.333 0 -65 -4.16699 -89 -12.5s-43.5 -19.166 -58.5 -32.499s-25.833 -28 -32.5 -44
s-10 -32 -10 -48c0 -10.667 2.5 -20.167 7.5 -28.5s10.333 -15.333 16 -21s10.667 -9.5 15 -11.5s5.83301 -2 4.5 0zM76.001 247.001c9.33301 -7.33301 20.334 -17.5029 33.001 -30.5029s22.667 -24.833 30 -35.5l15.5 19.5l17 20l16.5 18
c5.33301 5.66699 10 9.83398 14 12.501c-3.33301 2 -8 5.5 -14 10.5s-12.167 10.667 -18.5 17s-12.5 12.833 -18.5 19.5s-10.333 12.334 -13 17.001c-4 -6 -8.66699 -12.333 -14 -19s-10.833 -13.167 -16.5 -19.5s-11.334 -12.166 -17.001 -17.499s-10.5 -9.33301 -14.5 -12
zM77.002 388.998c9.33301 -8 20.168 -18.502 32.501 -31.502s22.166 -24.833 29.499 -35.5l32.5 40c12.333 14.667 22.5 24.667 30.5 30c-3.33301 2 -8 5.5 -14 10.5s-12.167 10.667 -18.5 17s-12.5 12.833 -18.5 19.5s-10.333 12.334 -13 17.001l-14 -18
c-5.33301 -6.66699 -10.833 -13.167 -16.5 -19.5s-11.167 -12.166 -16.5 -17.499s-10 -9.33301 -14 -12zM76.0039 105.996c9.33301 -7.33301 20.334 -17.6699 33.001 -31.0029s22.667 -25 30 -35l15.5 19.5l17 20l16.5 18c5.33301 5.66699 10 9.83398 14 12.501
c-3.33301 2 -8 5.5 -14 10.5s-12.167 10.667 -18.5 17s-12.5 12.833 -18.5 19.5s-10.333 12.334 -13 17.001c-4 -6 -8.66699 -12.333 -14 -19s-10.833 -13.167 -16.5 -19.5s-11.334 -12.166 -17.001 -17.499s-10.5 -9.33301 -14.5 -12z" />
    <glyph glyph-name="B" unicode="B" horiz-adv-x="679" 
d="M85 444c0 2.66699 -3.17188 4.83398 -9.50488 6.50098s-13.166 4.33398 -20.499 8.00098s-14.166 9.16699 -20.499 16.5s-9.5 18 -9.5 32c0 14.667 4.66699 26.167 14 34.5s19.666 12.5 30.999 12.5c8.66699 0 17.167 -1.5 25.5 -4.5s16.833 -6.5 25.5 -10.5
s17.167 -7.5 25.5 -10.5s17.166 -4.5 26.499 -4.5c4.66699 0 11.167 0.5 19.5 1.5s16.5 2.16699 24.5 3.5l21 3.5l9 1.5v-398l79 71v86l26 26c5.33301 5.33301 14 9.66602 26 12.999s24.667 5 38 5c20 0 40.167 -2.83301 60.5 -8.5s38.833 -14.334 55.5 -26.001
s30.334 -26 41.001 -43s16 -36.833 16 -59.5c0 -21.333 -3.5 -42.166 -10.5 -62.499s-16.833 -38.333 -29.5 -54s-27.5 -28.167 -44.5 -37.5s-35.833 -14 -56.5 -14c-18 0 -37.667 6.16699 -59 18.5l-68 40c-24 14.333 -49.333 27.666 -76 39.999s-55 18.5 -85 18.5
c-24.667 0 -45.834 -4 -63.501 -12s-32.167 -18 -43.5 -30s-19.666 -24.833 -24.999 -38.5s-8 -25.834 -8 -36.501c0 -13.333 1.83301 -24 5.5 -32s8.16699 -14.333 13.5 -19s10.666 -7.83398 15.999 -9.50098s9.66602 -2.5 12.999 -2.5
c2.66699 0 2.33398 0.5 -0.999023 1.5s-7.33301 3.33301 -12 7s-9.16699 9.16699 -13.5 16.5s-6.5 17 -6.5 29c0 5.33301 2.16699 11.333 6.5 18s10.333 12.834 18 18.501s16.834 10.334 27.501 14.001s22.334 5.5 35.001 5.5c23.333 0 43.666 -4.16699 60.999 -12.5
s35.333 -17.5 54 -27.5s39.834 -19.167 63.501 -27.5s53.5 -12.5 89.5 -12.5c32 0 64.833 6.33301 98.5 19s64.334 30.5 92.001 53.5s50.5 50.5 68.5 82.5s27 67 27 105c0 34.667 -7.5 62.834 -22.5 84.501s-32.667 38.334 -53 50.001s-41.333 20 -63 25
s-39.334 7.83301 -53.001 8.5s-21.167 1 -22.5 1l13 11.5c8.66699 7.66699 18 16.5 28 26.5l28 28c8.66699 8.66699 13 14 13 16c-5.33301 4 -12.166 11.167 -20.499 21.5s-16.833 21.5 -25.5 33.5s-16.667 23.833 -24 35.5s-12.666 21.167 -15.999 28.5l-132 -130
c0 1.33301 0.333008 6 1 14s2 18.667 4 32s5 25.333 9 36c2.66699 8 5.5 14.167 8.5 18.5s5.66699 8 8 11s4.33301 5.33301 6 7s2.5 4.16699 2.5 7.5c-4.66699 0 -9.66699 -1 -15 -3s-12.166 -4.33301 -20.499 -7s-18.833 -5 -31.5 -7s-29 -3 -49 -3
c-11.333 0 -21.5 1.33301 -30.5 4s-17.667 5.5 -26 8.5s-17 5.83301 -26 8.5s-19.167 4 -30.5 4c-19.333 0 -37.333 -3 -54 -9s-31 -14.333 -43 -25s-21.5 -23.334 -28.5 -38.001s-10.5 -30.334 -10.5 -47.001c0 -14 3.5 -25.333 10.5 -34s15.333 -15.5 25 -20.5
s19.167 -8.33301 28.5 -10s16.333 -2.5 21 -2.5zM99.9951 246c9.33301 -8 20.167 -18.502 32.5 -31.502s22.166 -24.833 29.499 -35.5l15.5 19.5l17 20l16.5 18c5.33301 5.66699 10 9.83398 14 12.501c-3.33301 2 -8 5.5 -14 10.5s-12.167 10.667 -18.5 17
s-12.333 12.833 -18 19.5s-10.167 12.334 -13.5 17.001c-3.33301 -5.33301 -7.66602 -11.333 -12.999 -18s-11 -13.167 -17 -19.5l-17 -17.5c-5.33301 -5.33301 -10 -9.33301 -14 -12zM99.9961 389.998c9.33301 -8 20.167 -18.502 32.5 -31.502s22.166 -24.833 29.499 -35.5
l15.5 19.5l17 20l16.5 18c5.33301 5.66699 10 9.83398 14 12.501c-3.33301 2 -8 5.5 -14 10.5s-12.167 10.667 -18.5 17s-12.333 12.833 -18 19.5s-10.167 12.334 -13.5 17.001c-3.33301 -5.33301 -7.66602 -11.333 -12.999 -18s-11 -13.167 -17 -19.5l-17 -17.5
c-5.33301 -5.33301 -10 -9.33301 -14 -12zM325.997 316.996l-0.000976562 158l75 74c2.66699 -6 6.83398 -13.333 12.501 -22s11.834 -17.334 18.501 -26.001s13.667 -16.667 21 -24s13.666 -12.666 18.999 -15.999z" />
    <glyph glyph-name="C" unicode="C" horiz-adv-x="557" 
d="M554 247c-0.666992 -0.666992 -4.50879 -6.83496 -11.5088 -18.502s-16.5 -26.667 -28.5 -45s-24.667 -36.166 -38 -53.499s-26.5 -32.166 -39.5 -44.499s-23.833 -18.5 -32.5 -18.5c-40.667 0 -80.5 5.83301 -119.5 17.5s-73.667 27 -104 46s-54.833 40.667 -73.5 65
s-28 49.5 -28 75.5c0 46.667 7.83301 86.334 23.5 119.001s32.834 59.334 51.501 80.001s35.834 35.667 51.501 45l23.5 14v-295c0 -10 -1.66699 -21 -5 -33s-7.16602 -23.167 -11.499 -33.5s-8.16602 -18.833 -11.499 -25.5l-5 -10l17.5 16
c11.667 10.667 24.334 23.334 38.001 38.001s26.334 29.5 38.001 44.5s17.5 26.833 17.5 35.5v260l8.5 7.5c5.66699 5 9.83398 7.5 12.501 7.5c1.33301 0 6.33301 -4.83301 15 -14.5l29.5 -31.5c11 -11.333 22.167 -21.833 33.5 -31.5s20.333 -14.5 27 -14.5
c3.33301 0 10.333 4.5 21 13.5s21 19 31 30s18.167 21 24.5 30s7.16602 13.5 2.49902 13.5l-10 -3.5c-6.66699 -2.33301 -11.667 -3.5 -15 -3.5c-2.66699 0 -8.33398 2.83301 -17.001 8.5s-17.5 12.667 -26.5 21s-17 17 -24 26s-10.5 16.833 -10.5 23.5
c0 5.33301 0.666992 9.66602 2 12.999s1.33301 5.66602 0 6.99902c-2.66699 4 -9.66699 1.83301 -21 -6.5s-23.166 -18.333 -35.499 -30s-23.333 -22.667 -33 -33l-14.5 -15.5v14c0 9.33301 -0.166992 19.833 -0.5 31.5s-0.833008 22.167 -1.5 31.5s-1.66699 14 -3 14
c-2.66699 0 -9.66699 -3.83301 -21 -11.5l-36 -25l-34 -25c-10 -7.66699 -14.333 -11.5 -13 -11.5c10 0 17.333 -3.5 22 -10.5l7 -10.5c-1.33301 -0.666992 -9.16602 -4.33398 -23.499 -11.001s-32.666 -17.834 -54.999 -33.501s-44.333 -35.167 -66 -58.5
s-40.167 -51.666 -55.5 -84.999s-23 -70.666 -23 -111.999c0 -42 11.333 -79 34 -111s50.834 -59 84.501 -81s70 -38.5 109 -49.5s74.833 -16.5 107.5 -16.5c15.333 0 31.333 5.16699 48 15.5s33 23.666 49 39.999s31 34.5 45 54.5s26.5 39.833 37.5 59.5s19.667 38 26 55
s9.5 30.5 9.5 40.5zM103.991 239.999c8.66699 -6.66699 18.667 -15.834 30 -27.501s20 -22.167 26 -31.5c8 10.667 17.667 22.5 29 35.5s20.666 22.167 27.999 27.5c-3.33301 1.33301 -7.66602 4.33301 -12.999 9s-10.833 9.83398 -16.5 15.501s-11.167 11.5 -16.5 17.5
s-9.33301 11 -12 15c-6 -10 -14.833 -21.333 -26.5 -34s-21.167 -21.667 -28.5 -27zM103.991 369.999c8.66699 -7.33301 18.667 -16.835 30 -28.502s20 -22.167 26 -31.5c8 10.667 17.667 22.667 29 36s20.666 22.333 27.999 27c-3.33301 2 -7.66602 5.33301 -12.999 10
s-10.833 9.83398 -16.5 15.501s-11.167 11.5 -16.5 17.5s-9.33301 11 -12 15c-6 -10.667 -14.833 -22.167 -26.5 -34.5s-21.167 -21.166 -28.5 -26.499z" />
    <glyph glyph-name="D" unicode="D" horiz-adv-x="706" 
d="M246 162c0 -6 -1.5 -10.998 -4.5 -14.998s-7.16699 -8.66699 -12.5 -14c-18.667 7.33301 -36.667 13.166 -54 17.499s-33.666 6.5 -48.999 6.5c-4.66699 0 -14 -3 -28 -9s-28.5 -14.5 -43.5 -25.5s-28.5 -24 -40.5 -39s-18 -31.5 -18 -49.5
c0 -13.333 3.5 -24.333 10.5 -33s13.5 -13 19.5 -13c1.33301 0 1.16602 0.833008 -0.500977 2.5s-3.66699 4 -6 7s-4.66602 6.83301 -6.99902 11.5s-3.5 10 -3.5 16c0 10.667 2.5 19.167 7.5 25.5s11.5 11.166 19.5 14.499s17.167 5.33301 27.5 6s20.833 1 31.5 1
c30 0 57.167 -4 81.5 -12s47.666 -16.833 69.999 -26.5s44.833 -18.5 67.5 -26.5s48 -12 76 -12c35.333 0 70.833 8 106.5 24s67.667 37.667 96 65s51.5 59.666 69.5 96.999s27 77.333 27 120c0 54.667 -9.5 102.667 -28.5 144s-45.833 75.666 -80.5 102.999
s-76.5 47.833 -125.5 61.5s-103.5 20.5 -163.5 20.5c-16.667 0 -32.5 -1.33301 -47.5 -4s-28.667 -5.83398 -41 -9.50098s-22.5 -6.83398 -30.5 -9.50098s-13.333 -4 -16 -4c-1.33301 0 -2.83301 1.33301 -4.5 4l-6 9.5c-2.33301 3.66699 -4.66602 6.83398 -6.99902 9.50098
s-4.83301 4 -7.5 4l-1 -9c-0.666992 -6 -1.33398 -11.5 -2.00098 -16.5s-1 -7.83301 -1 -8.5c-17.333 -34.667 -30 -62 -38 -82s-13.333 -35.167 -16 -45.5s-3.5 -17.166 -2.5 -20.499s1.5 -5.66602 1.5 -6.99902l11.5 17c7.66699 11.333 20.5 24 38.5 38
s42.167 26.667 72.5 38s68.5 17 114.5 17c19.333 0 39.5 -2.16699 60.5 -6.5s41.833 -10.833 62.5 -19.5s40.5 -19.5 59.5 -32.5s36.5 -27.833 52.5 -44.5l-21.5 -21.5l-54 -53.5l-71 -71l-73.5 -73v236c0 6 1.16699 12.167 3.5 18.5s5 12.5 8 18.5s5.5 11.5 7.5 16.5
s3 8.5 3 10.5c-2 0 -8.66699 -4.83301 -20 -14.5l-36.5 -32l-35.5 -32l-16 -14.5l4 -5c2.66699 -3.33301 4 -9.66602 4 -18.999v-250zM73 240.002c4.66699 -4 9.83203 -8.66895 15.499 -14.002s11.334 -11 17.001 -17s11.167 -12.167 16.5 -18.5
s9.66602 -11.833 12.999 -16.5l15.5 19.5l17 20l16.5 18c5.33301 5.66699 10 9.83398 14 12.501c-3.33301 2 -8 5.5 -14 10.5s-12.167 10.667 -18.5 17s-12.333 12.833 -18 19.5s-10.167 12.334 -13.5 17.001c-3.33301 -6 -7.66602 -12.333 -12.999 -19
s-11 -13.167 -17 -19.5l-17 -17.5c-5.33301 -5.33301 -10 -9.33301 -14 -12zM72.998 384c4.66699 -4 9.83203 -8.66895 15.499 -14.002s11.334 -11 17.001 -17s11.167 -12.167 16.5 -18.5s9.66602 -11.833 12.999 -16.5l15.5 19.5l17 20l16.5 18
c5.33301 5.66699 10 9.83398 14 12.501c-3.33301 2 -8 5.5 -14 10.5s-12.167 10.667 -18.5 17s-12.333 12.833 -18 19.5s-10.167 12.334 -13.5 17.001c-3.33301 -6 -7.66602 -12.333 -12.999 -19s-11 -13.167 -17 -19.5l-17 -17.5c-5.33301 -5.33301 -10 -9.33301 -14 -12z
M595.996 370.998c11.333 -28 17 -58 17 -90c0 -28.667 -4 -57.5 -12 -86.5s-18.333 -55 -31 -78s-27 -41.667 -43 -56s-32 -21.5 -48 -21.5c-20 0 -43.667 5.83301 -71 17.5l-89 37.5zM555.996 434.998c6 -7.33301 11.667 -14.832 17 -22.499s10 -15.834 14 -24.501
l-286 -285l-27 12c-8.66699 4 -17.667 7.66699 -27 11z" />
    <glyph glyph-name="E" unicode="E" horiz-adv-x="613" 
d="M55 253c4.66699 -4 9.83203 -8.66895 15.499 -14.002s11.334 -11 17.001 -17s11.167 -12.167 16.5 -18.5s9.66602 -12.166 12.999 -17.499c9.33301 12 20.333 25.333 33 40s22.667 24.667 30 30c-3.33301 2 -8 5.5 -14 10.5s-12.167 10.667 -18.5 17
s-12.333 12.833 -18 19.5s-10.167 12.334 -13.5 17.001c-3.33301 -5.33301 -7.66602 -11.333 -12.999 -18s-11 -13.167 -17 -19.5l-17 -17.5c-5.33301 -5.33301 -10 -9.33301 -14 -12zM54.998 396.998c4.66699 -4 9.83203 -8.66895 15.499 -14.002s11.334 -11 17.001 -17
s11.167 -12.167 16.5 -18.5s9.66602 -12.166 12.999 -17.499c9.33301 12 20.333 25.333 33 40s22.667 24.667 30 30c-3.33301 2 -8 5.5 -14 10.5s-12.167 10.667 -18.5 17s-12.333 12.833 -18 19.5s-10.167 12.334 -13.5 17.001
c-3.33301 -5.33301 -7.66602 -11.333 -12.999 -18s-11 -13.167 -17 -19.5l-17 -17.5c-5.33301 -5.33301 -10 -9.33301 -14 -12zM417.996 535.996c-8.66699 8.66699 -17.3359 18.002 -26.0029 28.002s-16.5 19.5 -23.5 28.5l-18 23.5c-5 6.66699 -7.83301 11.334 -8.5 14.001
c-0.666992 -2.66699 -4.16699 -8.33398 -10.5 -17.001s-14.333 -18.667 -24 -30l-31 -36l-32 -35.5l-27 -28c-7.66699 -7.66699 -12.5 -12.167 -14.5 -13.5c6.66699 -4.66699 10 -10.667 10 -18v-274c0 -14.667 -4 -27.667 -12 -39c-31.333 8 -60.666 12 -87.999 12
c-12.667 0 -25.667 -4.33301 -39 -13s-25.5 -19.667 -36.5 -33s-20 -27.666 -27 -42.999s-10.5 -29.333 -10.5 -42c0 -10 1.83301 -18 5.5 -24s8 -10.5 13 -13.5s9.83301 -4.83301 14.5 -5.5s7.66699 -1 9 -1c2.66699 0 2.83398 0.5 0.500977 1.5s-5.5 3 -9.5 6
s-8 6.83301 -12 11.5s-6 11 -6 19c0 10 2.83301 19.5 8.5 28.5s12.667 17 21 24s17.666 12.667 27.999 17s20.5 6.5 30.5 6.5c17.333 0 39.333 -5.66699 66 -17l88 -37c32 -13.333 65.667 -25.666 101 -36.999s71 -17 107 -17c13.333 0 28.333 5 45 15
s32.167 23.5 46.5 40.5s26.5 36.5 36.5 58.5s15 45.333 15 70c0 10 -1.83301 20.167 -5.5 30.5s-9 19.666 -16 27.999s-15.333 15.333 -25 21s-20.834 8.5 -33.501 8.5c-5.33301 0 -11 -1.16699 -17 -3.5s-11.333 -5 -16 -8s-8.5 -6 -11.5 -9s-4.5 -5.5 -4.5 -7.5
c0 -1.33301 4 1 12 7s20.333 9 37 9c8 0 15.667 -2.33301 23 -7s13.666 -10.834 18.999 -18.501s9.66602 -16 12.999 -25s5 -17.5 5 -25.5c0 -16 -3.66699 -30.833 -11 -44.5s-16.166 -25.667 -26.499 -36s-21.333 -18.333 -33 -24s-21.5 -8.5 -29.5 -8.5
c-13.333 0 -30.166 3.16699 -50.499 9.5s-42.833 14 -67.5 23l-78.5 28c-27.667 9.66699 -55.167 17.834 -82.5 24.501c8.66699 8 17.834 17.333 27.501 28l27 30.5c8.33301 9.66699 15.166 18 20.499 25s8 11.5 8 13.5v101l10 -7.5l23.5 -17.5
c9 -6.66699 17.833 -13.834 26.5 -21.501s15 -13.834 19 -18.501c6.66699 7.33301 14.167 15 22.5 23l24.5 23c8 7.33301 15.667 14 23 20l17 14c-4 3.33301 -9.33301 8.16602 -16 14.499l-21 20c-7.33301 7 -14.166 14.167 -20.499 21.5s-11.5 13.666 -15.5 18.999
c2.66699 3.33301 7.5 8.33301 14.5 15l21.5 21c7.33301 7.33301 14.666 14.166 21.999 20.499s13 10.833 17 13.5c-2.66699 1.33301 -6.5 4.33301 -11.5 9s-10.833 10.667 -17.5 18c2 2.66699 5 6 9 10l12 11.5c4 3.66699 8 6.83398 12 9.50098s7.33301 4 10 4l2.5 -10.5
c1.66699 -7 4.83398 -14.833 9.50098 -23.5s11.167 -16.5 19.5 -23.5s18.833 -10.5 31.5 -10.5c6 0 13 1 21 3s15.667 5.33301 23 10s13.5 10.667 18.5 18s7.5 16.666 7.5 27.999c0 10.667 -3.5 18.167 -10.5 22.5s-13.5 6.5 -19.5 6.5c-12 0 -21 -4.16699 -27 -12.5
s-9 -14.5 -9 -18.5l9 10c6 6.66699 14.333 10 25 10c4.66699 0 9.16699 -1.5 13.5 -4.5s6.5 -7.83301 6.5 -14.5c0 -11.333 -4.83301 -21.666 -14.5 -30.999s-24.167 -14 -43.5 -14c-11.333 0 -20.333 4.33301 -27 13s-11.667 18.334 -15 29.001
s-5.83301 20.334 -7.5 29.001s-3.16699 13 -4.5 13c-4.66699 0 -10.167 -2.16699 -16.5 -6.5s-12.666 -9.33301 -18.999 -15s-12.166 -11.334 -17.499 -17.001zM291.994 525.998c4.66699 -4.66699 11.167 -11.6689 19.5 -21.002s16.5 -19.166 24.5 -29.499l22.5 -29
c7 -9 11.833 -15.833 14.5 -20.5c-4.66699 -6.66699 -11.5 -14.667 -20.5 -24s-18 -18.166 -27 -26.499l-23.5 -21.5l-10 -9v181z" />
    <glyph glyph-name="F" unicode="F" horiz-adv-x="597" 
d="M283 55c0 -18.667 -6.00293 -36.499 -18.0029 -53.499s-26.5 -31.833 -43.5 -44.5s-35.167 -22.667 -54.5 -30s-36.333 -11 -51 -11c-13.333 0 -26 2.33301 -38 7s-22.5 10.834 -31.5 18.501s-16 16.334 -21 26.001s-7.5 19.5 -7.5 29.5c0 9.33301 2.83301 18.5 8.5 27.5
s11.167 13.5 16.5 13.5c0 -0.666992 1.33301 -3.66699 4 -9s6.83398 -11 12.501 -17s12.834 -9 21.501 -9c6.66699 0 12.834 2 18.501 6s8.5 8.66699 8.5 14c0 8 -3 15.167 -9 21.5s-16.667 9.5 -32 9.5c-12.667 0 -23 -2.66699 -31 -8s-14.333 -11.5 -19 -18.5
s-7.83398 -13.833 -9.50098 -20.5s-2.5 -11.334 -2.5 -14.001c0 -12 3 -23.833 9 -35.5s14.167 -21.834 24.5 -30.501s22.166 -15.667 35.499 -21s27.333 -8 42 -8c23.333 0 45.666 5.16699 66.999 15.5s41.166 21.833 59.499 34.5l49.5 34.5
c14.667 10.333 27.334 15.5 38.001 15.5h14c6 0 11.667 0.166992 17 0.5s9.83301 1 13.5 2s5.5 2.16699 5.5 3.5c0 5.33301 -3.16699 9.16602 -9.5 11.499s-9.5 6.16602 -9.5 11.499v234h100c5.33301 0 9.66602 -2.33301 12.999 -7s7 -7 11 -7c2 0 4.16699 1.16699 6.5 3.5
l5.5 5.5l109 111c0.666992 1.33301 1.33398 3 2.00098 5s-2.33301 3 -9 3c-2 0 -4.83301 -2 -8.5 -6s-8.5 -8.16699 -14.5 -12.5s-13.333 -8.5 -22 -12.5s-19 -6 -31 -6h-162v170c0 12 4 18 12 18c6.66699 0 15 -3.5 25 -10.5s19.667 -15 29 -24s17.333 -17.333 24 -25
s10.667 -12.5 12 -14.5c-0.666992 -1.33301 -2.16699 -3.33301 -4.5 -6l-8 -9c-3 -3.33301 -5.66699 -6.5 -8 -9.5s-3.5 -5.16699 -3.5 -6.5s0.833008 -1.83301 2.5 -1.5s3.16699 1.16602 4.5 2.49902l129 128c0.666992 0.666992 1.33398 1.83398 2.00098 3.50098
s0.333984 2.5 -0.999023 2.5c-2 0 -4.83301 -1.33301 -8.5 -4l-12 -9l-12.5 -10c-4 -3.33301 -7 -5.33301 -9 -6c-2 0.666992 -6.66699 4.33398 -14 11.001s-15.333 14.5 -24 23.5l-25 27c-8 9 -13 15.5 -15 19.5c-1.33301 5.33301 -2.16602 10.333 -2.49902 15
s-1.5 7 -3.5 7c-5.33301 0 -15.5 -9.33301 -30.5 -28s-34.167 -41 -57.5 -67c-8 -9.33301 -17.333 -17.833 -28 -25.5l-30.5 -21.5c-9.66699 -6.66699 -17.667 -12.5 -24 -17.5s-9.5 -8.83301 -9.5 -11.5c0 -5.33301 2.16699 -11.833 6.5 -19.5s6.5 -15.167 6.5 -22.5v-362z
M126.997 255.001c9.33301 -8 20.167 -18.502 32.5 -31.502s22.166 -24.833 29.499 -35.5l15.5 19.5l17 20l16.5 18c5.33301 5.66699 10 9.83398 14 12.501c-3.33301 2 -8 5.5 -14 10.5s-12.167 10.667 -18.5 17s-12.333 12.833 -18 19.5s-10.167 12.334 -13.5 17.001
c-3.33301 -5.33301 -7.66602 -11.333 -12.999 -18s-11 -13.167 -17 -19.5l-17 -17.5c-5.33301 -5.33301 -10 -9.33301 -14 -12zM127.998 395.999c4.66699 -4 9.83105 -8.66992 15.498 -14.0029s11.334 -11 17.001 -17s11 -12.167 16 -18.5s9.16699 -12.166 12.5 -17.499
l15.5 19.5l17 20.5c5.66699 6.66699 11.167 12.834 16.5 18.501s10 9.83398 14 12.501c-3.33301 2 -8 5.5 -14 10.5s-12.167 10.667 -18.5 17s-12.333 12.666 -18 18.999s-10.167 11.833 -13.5 16.5c-3.33301 -5.33301 -7.66602 -11.333 -12.999 -18
s-10.833 -13.167 -16.5 -19.5s-11.167 -12.166 -16.5 -17.499s-10 -9.33301 -14 -12zM126.995 112.996c4.66699 -4 9.83203 -8.66895 15.499 -14.002s11.334 -11 17.001 -17s11.167 -12.167 16.5 -18.5s9.66602 -11.833 12.999 -16.5l15.5 19.5l17 20l16.5 18
c5.33301 5.66699 10 9.83398 14 12.501c-3.33301 2 -8 5.5 -14 10.5s-12.167 10.667 -18.5 17s-12.333 12.833 -18 19.5s-10.167 12.334 -13.5 17.001c-3.33301 -6 -7.66602 -12.333 -12.999 -19s-11 -13.167 -17 -19.5l-17 -17.5c-5.33301 -5.33301 -10 -9.33301 -14 -12z
" />
    <glyph glyph-name="G" unicode="G" horiz-adv-x="618" 
d="M607 241c0 40 -8.1748 73 -24.5078 99s-34.666 46.833 -54.999 62.5s-39.5 26.667 -57.5 33s-28.667 9.5 -32 9.5l72 72c2.66699 2 5.5 4.5 8.5 7.5s4.5 6.16699 4.5 9.5c0 1.33301 -1.33301 2 -4 2c-1.33301 0 -3.16602 -0.666992 -5.49902 -2s-4.16602 -2 -5.49902 -2
s-8 4.33301 -20 13l-39.5 30c-14.333 11.333 -27.333 22.333 -39 33s-17.5 18 -17.5 22l-85 -86v58c0 12.667 -0.833008 21.334 -2.5 26.001l-2.5 7c-1.33301 0 -7.5 -3.83301 -18.5 -11.5l-35.5 -25l-34.5 -25c-10.333 -7.66699 -15.5 -11.834 -15.5 -12.501
c10 0 17.333 -3.5 22 -10.5l7 -10.5c-1.33301 -0.666992 -9.16602 -4.33398 -23.499 -11.001s-32.666 -17.834 -54.999 -33.501s-44.333 -35.167 -66 -58.5s-40.167 -51.666 -55.5 -84.999s-23 -70.666 -23 -111.999c0 -40.667 10.833 -77 32.5 -109
s48.834 -59.167 81.501 -81.5s68.334 -39.5 107.001 -51.5s74.667 -18 108 -18c11.333 0 25.833 2.83301 43.5 8.5s36.667 13.834 57 24.501s40.833 23.667 61.5 39s39.334 32.666 56.001 51.999s30.167 40.5 40.5 63.5s15.5 47.5 15.5 73.5zM312.992 333
c10.667 4.66699 18.9971 8.49805 24.9971 11.498s12 5.33301 18 7s12.5 2.83398 19.5 3.50098s16.833 1 29.5 1c18 0 35.5 -5.66699 52.5 -17s31.833 -26.5 44.5 -45.5s22.834 -41.333 30.501 -67s11.5 -52.5 11.5 -80.5c0 -54.667 -45.333 -82 -136 -82
c-20 0 -42 2.16699 -66 6.5s-48.167 10.5 -72.5 18.5s-48 18 -71 30s-43.333 25.667 -61 41s-31.834 32.333 -42.501 51s-16 39 -16 61c0 41.333 6.83301 78 20.5 110s29.334 58.833 47.001 80.5s34.5 38 50.5 49s26.667 16.5 32 16.5v-294c0 -10 -1.66699 -21 -5 -33
s-7.16602 -23.167 -11.499 -33.5s-8.16602 -18.833 -11.499 -25.5l-5 -10l11.5 11l27.5 27c11.333 11.333 22.333 23 33 35s19.834 23.5 27.501 34.5s11.5 19.833 11.5 26.5v260l9 8.5l12 11.5c-2 -3.33301 2 -9.66602 12 -18.999s21.5 -19 34.5 -29s25.667 -19 38 -27
s20.166 -12 23.499 -12l-110 -110zM103.989 239.998c8.66699 -6.66699 18.667 -15.834 30 -27.501s20 -22.167 26 -31.5c8 10.667 17.667 22.5 29 35.5s20.666 22.167 27.999 27.5c-3.33301 1.33301 -7.66602 4.33301 -12.999 9s-10.833 9.83398 -16.5 15.501
s-11.167 11.5 -16.5 17.5s-9.33301 11 -12 15c-6 -10 -14.833 -21.333 -26.5 -34s-21.167 -21.667 -28.5 -27zM103.989 369.998c8.66699 -7.33301 18.667 -16.835 30 -28.502s20 -22.167 26 -31.5c8 10.667 17.667 22.667 29 36s20.666 22.333 27.999 27
c-3.33301 2 -7.66602 5.33301 -12.999 10s-10.833 9.83398 -16.5 15.501s-11.167 11.5 -16.5 17.5s-9.33301 11 -12 15c-6 -10.667 -14.833 -22.167 -26.5 -34.5s-21.167 -21.166 -28.5 -26.499z" />
    <glyph glyph-name="H" unicode="H" horiz-adv-x="525" 
d="M203 110l79 71.9961v270l21 11c3.33301 -2 8.5 -6.5 15.5 -13.5s14.667 -13.667 23 -20s17.333 -11.333 27 -15s19.167 -3.5 28.5 0.5c-3.33301 -4 -6.16602 -8.33301 -8.49902 -13s-4.16602 -11.167 -5.49902 -19.5s-2.16602 -19.5 -2.49902 -33.5s-0.5 -32 -0.5 -54
c0 -18.667 2.83301 -35.5 8.5 -50.5s12 -29.5 19 -43.5s13.5 -28.667 19.5 -44s9 -32.666 9 -51.999c0 -13.333 -1 -26.666 -3 -39.999s-5.66699 -25.666 -11 -36.999s-12.333 -20.5 -21 -27.5s-19.334 -10.5 -32.001 -10.5s-21.834 2.16699 -27.501 6.5
s-8.5 5.83301 -8.5 4.5s3.5 -5.16602 10.5 -11.499s18.167 -9.5 33.5 -9.5c10 0 22.667 4.16699 38 12.5s30.166 19.333 44.499 33s26.5 29.667 36.5 48s15 37.5 15 57.5c0 10.667 -3.5 24 -10.5 40l-22.5 53.5c-8 19.667 -15.5 40.5 -22.5 62.5s-10.5 44 -10.5 66
c0 26 1 46 3 60s4.33301 24.5 7 31.5s5 11.833 7 14.5s3 5.66699 3 9c-8 0 -17.833 3.33301 -29.5 10s-22.834 14.5 -33.501 23.5s-19.834 18.167 -27.501 27.5s-11.5 16.666 -11.5 21.999l-81 -81v16c0 50.667 5.33301 89.334 16 116.001s22.834 46 36.501 58
s26.667 18.667 39 20s20.166 2 23.499 2c14 0 24.333 -2.5 31 -7.5s10.667 -9.5 12 -13.5s2 -6.33301 2 -7c-0.666992 0 -3.5 -0.5 -8.5 -1.5s-10.5 -3.5 -16.5 -7.5s-9 -10 -9 -18c0 -16.667 9.66699 -25 29 -25c5.33301 0 11 2.5 17 7.5s9 13.167 9 24.5
c0 16.667 -6.16699 30.834 -18.5 42.501s-27.166 17.5 -44.499 17.5c-26 0 -47 -5.5 -63 -16.5s-29.5 -24 -40.5 -39s-20.667 -30.333 -29 -46s-18.166 -28.167 -29.499 -37.5c-8 -6.66699 -16.833 -13 -26.5 -19s-17.667 -10.5 -24 -13.5s-9.83301 -4.83301 -10.5 -5.5
c0.666992 0 3 -1.16699 7 -3.5s8.16699 -5.83301 12.5 -10.5s6.5 -9.33398 6.5 -14.001v-379zM19 -7.00391c0 1.33301 -2.50293 3.67285 -7.50293 7.00586s-7.5 12.666 -7.5 27.999c0 14 5.66699 25.5 17 34.5s24 13.5 38 13.5c7.33301 0 19.333 -4 36 -12l53.5 -26.5
l54 -26.5c17 -8 29.833 -12 38.5 -12c14.667 0 30.167 2.83301 46.5 8.5s31.166 13.167 44.499 22.5s24.5 19.666 33.5 30.999s13.5 23 13.5 35c0 20 -5.83301 34.667 -17.5 44s-25.167 14 -40.5 14c-14.667 0 -25.5 -5 -32.5 -15s-10.5 -19.667 -10.5 -29
c2 0 3.83301 1.66699 5.5 5s3.83398 7.16602 6.50098 11.499s6.33398 8.16602 11.001 11.499s11.334 5 20.001 5c11.333 0 20.5 -3.83301 27.5 -11.5s10.5 -18.167 10.5 -31.5c0 -8 -2.66699 -15 -8 -21s-11.833 -10.667 -19.5 -14s-15.667 -5.83301 -24 -7.5
s-15.5 -2.5 -21.5 -2.5c-6.66699 0 -16.667 3.83301 -30 11.5l-44.5 26c-16.333 9.66699 -33.666 18.334 -51.999 26.001s-35.5 11.5 -51.5 11.5c-3.33301 0 -11.166 -2.5 -23.499 -7.5s-25.333 -11.833 -39 -20.5s-25.834 -18.834 -36.501 -30.501s-16 -24.167 -16 -37.5
c0 -10 1.33301 -17.833 4 -23.5s5.66699 -9.83398 9 -12.501s6.33301 -4.33398 9 -5.00098s4 -0.666992 4 0zM54.9971 208.003c4.66699 -4 9.83203 -8.66895 15.499 -14.002s11.334 -11 17.001 -17s11.167 -12.167 16.5 -18.5s9.66602 -12.166 12.999 -17.499
c9.33301 12 20.333 25.333 33 40s22.667 24.667 30 30c-3.33301 2 -8 5.5 -14 10.5s-12.167 10.667 -18.5 17s-12.333 12.833 -18 19.5s-10.167 12.334 -13.5 17.001c-3.33301 -5.33301 -7.66602 -11.333 -12.999 -18s-11 -13.167 -17 -19.5l-17 -17.5
c-5.33301 -5.33301 -10 -9.33301 -14 -12zM54.9951 352.001c4.66699 -4 9.83203 -8.66895 15.499 -14.002s11.334 -11 17.001 -17s11.167 -12.167 16.5 -18.5s9.66602 -12.166 12.999 -17.499c9.33301 12 20.333 25.333 33 40s22.667 24.667 30 30
c-3.33301 2 -8 5.5 -14 10.5s-12.167 10.667 -18.5 17s-12.333 12.833 -18 19.5s-10.167 12.334 -13.5 17.001c-3.33301 -5.33301 -7.66602 -11.333 -12.999 -18s-11 -13.167 -17 -19.5l-17 -17.5c-5.33301 -5.33301 -10 -9.33301 -14 -12z" />
    <glyph glyph-name="I" unicode="I" horiz-adv-x="564" 
d="M611 600c-1.33301 2 -4.49023 2 -9.49023 0s-12.333 -4.5 -22 -7.5s-21.834 -5.83301 -36.501 -8.5s-32 -4 -52 -4c-22 0 -42.333 2.5 -61 7.5s-37.5 10.333 -56.5 16s-38.667 11 -59 16s-42.833 7.5 -67.5 7.5s-50 -2.33301 -76 -7s-49.833 -12.834 -71.5 -24.501
s-39.334 -27.667 -53.001 -48s-20.5 -45.833 -20.5 -76.5c0 -10 1.66699 -20.667 5 -32s8.83301 -22 16.5 -32s17.334 -18.167 29.001 -24.5s25.5 -9.5 41.5 -9.5c12 0 22.833 1.83301 32.5 5.5s18 7.83398 25 12.501s12.333 9.5 16 14.5s5.5 9.16699 5.5 12.5
c0 2 -1.16699 1.66699 -3.5 -1s-6.16602 -6.16699 -11.499 -10.5s-13 -8.5 -23 -12.5s-22.333 -6 -37 -6c-12.667 0 -23.667 2.33301 -33 7s-17 10.667 -23 18s-10.5 15.833 -13.5 25.5s-4.5 19.167 -4.5 28.5c0 14 3.16699 27.667 9.5 41s15.5 25 27.5 35s27 18 45 24
s38.667 9 62 9c19.333 0 38.666 -3 57.999 -9s38.833 -12.833 58.5 -20.5s39.5 -14.5 59.5 -20.5s40.333 -9 61 -9c10.667 0 22 0.833008 34 2.5s21.333 3.16699 28 4.5s10.334 2 11.001 2l-10.5 -24.5c-7 -16.333 -14.5 -37 -22.5 -62s-15.5 -52.5 -22.5 -82.5
s-10.5 -59 -10.5 -87c0 -4 0.166992 -9.5 0.5 -16.5s0.5 -14.5 0.5 -22.5s0.166992 -15.833 0.5 -23.5s0.5 -13.5 0.5 -17.5c0 -37.333 -5.5 -66.5 -16.5 -87.5s-23.833 -36.833 -38.5 -47.5s-29.834 -17.167 -45.501 -19.5s-27.834 -3.5 -36.501 -3.5
c-11.333 0 -23 2 -35 6s-23.333 8.5 -34 13.5s-19.334 9.66699 -26.001 14l-10 6.5l10.5 10c7 6.66699 10.5 16.667 10.5 30c0 4.66699 -0.833008 8 -2.5 10l-2.5 3c0 -10 -2.16699 -18.333 -6.5 -25s-8.5 -11.5 -12.5 -14.5s-6.33301 -4.5 -7 -4.5l-10 11.5
c-6.66699 7.66699 -15.334 16 -26.001 25s-23.167 17.333 -37.5 25s-28.833 11.5 -43.5 11.5c-8.66699 0 -17.334 -1.33301 -26.001 -4s-16.5 -6.5 -23.5 -11.5s-12.667 -11.333 -17 -19s-6.5 -16.167 -6.5 -25.5c0 -17.333 8.83301 -32 26.5 -44s38.5 -18 62.5 -18
c15.333 0 30 2.16699 44 6.5s24.667 8.5 32 12.5s11.666 6.33301 12.999 7l10 -9c6.66699 -6 16.334 -12.833 29.001 -20.5s28.167 -14.5 46.5 -20.5s39.166 -9 62.499 -9c9.33301 0 21.333 0.5 36 1.5s30 4.5 46 10.5s32.167 15.5 48.5 28.5s31 31.5 44 55.5
s23.5 54.5 31.5 91.5s12 82.5 12 136.5c0 47.333 1.83301 87 5.5 119s8.16699 58.167 13.5 78.5s11.166 35.833 17.499 46.5s12.166 18.167 17.499 22.5s9.66602 7 12.999 8s4.66602 1.83301 3.99902 2.5zM263.01 269c9.33301 -7.33301 20.167 -17.6699 32.5 -31.0029
s22.166 -25.333 29.499 -36l15.5 19.5l17 20.5c5.66699 6.66699 11.167 12.834 16.5 18.501s10 9.83398 14 12.501c-3.33301 2 -8 5.5 -14 10.5s-12.167 10.667 -18.5 17s-12.333 12.833 -18 19.5s-10.167 12.334 -13.5 17.001c-3.33301 -6 -7.66602 -12.333 -12.999 -19
s-11 -13.167 -17 -19.5l-17 -17.5c-5.33301 -5.33301 -10 -9.33301 -14 -12zM264.011 409.996c9.33301 -7.33301 19.998 -17.6699 31.998 -31.0029s21.667 -25 29 -35l15.5 19.5c5.66699 7 11.334 13.667 17.001 20l16.5 18c5.33301 5.66699 10 9.83398 14 12.501
c-3.33301 2 -8 5.5 -14 10.5s-12.167 10.667 -18.5 17s-12.333 12.833 -18 19.5s-10.167 12.334 -13.5 17.001c-3.33301 -6 -7.66602 -12.333 -12.999 -19s-10.833 -13.167 -16.5 -19.5s-11.167 -12.166 -16.5 -17.499s-10 -9.33301 -14 -12zM263.009 127.992
c9.33301 -8 20.167 -18.501 32.5 -31.501s22.166 -24.833 29.499 -35.5c9.33301 12 20.333 25.333 33 40s22.667 24.667 30 30c-3.33301 2 -8 5.5 -14 10.5s-12.167 10.667 -18.5 17s-12.333 12.833 -18 19.5s-10.167 12.334 -13.5 17.001
c-3.33301 -5.33301 -7.66602 -11.333 -12.999 -18s-11 -13.167 -17 -19.5l-17 -17.5c-5.33301 -5.33301 -10 -9.33301 -14 -12zM163.01 67.9912c-0.666992 -0.666992 -4.16992 -2.33203 -10.5029 -4.99902s-15.666 -5.66699 -27.999 -9s-25.166 -5 -38.499 -5
c-19.333 0 -36 4.66699 -50 14s-21 20.333 -21 33c0 11.333 5.16699 20.666 15.5 27.999s21.5 11 33.5 11c11.333 0 22.833 -3.5 34.5 -10.5s22.334 -14.667 32.001 -23s17.5 -16 23.5 -23z" />
    <glyph glyph-name="J" unicode="J" horiz-adv-x="579" 
d="M616 600c0 2.66699 -1.99707 3.00391 -5.99707 1.00391s-10.167 -4.5 -18.5 -7.5s-19.333 -6 -33 -9s-30.5 -4.5 -50.5 -4.5c-25.333 0 -48.333 2.5 -69 7.5s-40.834 10.333 -60.501 16s-39.5 11 -59.5 16s-41.333 7.5 -64 7.5c-26 0 -52.333 -2.5 -79 -7.5
s-50.667 -13.5 -72 -25.5s-38.833 -28 -52.5 -48s-20.5 -45 -20.5 -75c0 -10 1.83301 -20.667 5.5 -32s9.16699 -22 16.5 -32s17 -18.167 29 -24.5s26.667 -9.5 44 -9.5c13.333 0 24.833 2 34.5 6s17.5 8.66699 23.5 14s10.5 10.5 13.5 15.5s4.5 8.16699 4.5 9.5
c0 0.666992 -1.33301 -0.5 -4 -3.5s-7.16699 -6.5 -13.5 -10.5s-14.666 -7.66699 -24.999 -11s-22.833 -5 -37.5 -5c-20 0 -36.5 8.16699 -49.5 24.5s-19.5 34.833 -19.5 55.5c0 14 3.33301 27.5 10 40.5s16.167 24.5 28.5 34.5s27.333 18 45 24s37.167 9 58.5 9
c20.667 0 41 -3 61 -9s39.833 -12.833 59.5 -20.5s39.5 -14.5 59.5 -20.5s40.333 -9 61 -9c11.333 0 22.833 0.833008 34.5 2.5s20.667 3.16699 27 4.5s9.83301 2 10.5 2l-10.5 -24c-7 -16 -14.667 -36.5 -23 -61.5s-16 -52.5 -23 -82.5s-10.5 -59 -10.5 -87
c0 -14 0.166992 -23.333 0.5 -28s0.666016 -8.5 0.999023 -11.5s0.666016 -6.83301 0.999023 -11.5s0.5 -14 0.5 -28v-65c0 -24 -1.16699 -48.5 -3.5 -73.5s-6.33301 -49.667 -12 -74s-13.667 -45.833 -24 -64.5s-23.833 -33.834 -40.5 -45.501s-37.334 -17.5 -62.001 -17.5
c-14 0 -29 3.5 -45 10.5s-28.833 13.5 -38.5 19.5s-15.167 9.33301 -16.5 10l9.5 9.5c6.33301 6.33301 9.5 15.833 9.5 28.5c0 7.33301 -0.5 11.666 -1.5 12.999l-1.5 2c0 -10.667 -2.16699 -19.334 -6.5 -26.001s-8.5 -11.334 -12.5 -14.001s-6.33301 -4 -7 -4l-10 11.5
c-6.66699 7.66699 -15.5 16 -26.5 25s-23.5 17.333 -37.5 25s-28 11.5 -42 11.5c-19.333 0 -36.5 -5.33301 -51.5 -16s-22.5 -25 -22.5 -43c0 -11.333 2.83301 -21 8.5 -29s13 -14.5 22 -19.5s18.833 -8.66699 29.5 -11s21 -3.5 31 -3.5c14 0 28 2.16699 42 6.5
s24.5 8.5 31.5 12.5s11.167 6.33301 12.5 7l10 -9c6.66699 -6 16.334 -12.667 29.001 -20s28 -14 46 -20s38.333 -9 61 -9c47.333 0 85.666 12 114.999 36s52 55.833 68 95.5s26.833 84.667 32.5 135s8.5 102.166 8.5 155.499c0 30 -0.5 57.333 -1.5 82
s-1.5 47.334 -1.5 68.001c0 44.667 3.66699 80.5 11 107.5s15.333 47.667 24 62s16.667 24 24 29s11 8.16699 11 9.5zM263.003 269.004c9.33301 -7.33301 20.167 -17.6699 32.5 -31.0029s22.166 -25.333 29.499 -36l15.5 19.5l17 20.5
c5.66699 6.66699 11.167 12.834 16.5 18.501s10 9.83398 14 12.501c-3.33301 2 -8 5.5 -14 10.5s-12.167 10.667 -18.5 17s-12.333 12.833 -18 19.5s-10.167 12.334 -13.5 17.001c-3.33301 -6 -7.66602 -12.333 -12.999 -19s-11 -13.167 -17 -19.5l-17 -17.5
c-5.33301 -5.33301 -10 -9.33301 -14 -12zM264.004 410c9.33301 -7.33301 19.998 -17.6699 31.998 -31.0029s21.667 -25 29 -35l15.5 19.5c5.66699 7 11.334 13.667 17.001 20l16.5 18c5.33301 5.66699 10 9.83398 14 12.501c-3.33301 2 -8 5.5 -14 10.5
s-12.167 10.667 -18.5 17s-12.333 12.833 -18 19.5s-10.167 12.334 -13.5 17.001c-3.33301 -6 -7.66602 -12.333 -12.999 -19s-10.833 -13.167 -16.5 -19.5s-11.167 -12.166 -16.5 -17.499s-10 -9.33301 -14 -12zM263.002 127.996c9.33301 -8 20.167 -18.501 32.5 -31.501
s22.166 -24.833 29.499 -35.5c9.33301 12 20.333 25.333 33 40s22.667 24.667 30 30c-3.33301 2 -8 5.5 -14 10.5s-12.167 10.667 -18.5 17s-12.333 12.833 -18 19.5s-10.167 12.334 -13.5 17.001c-3.33301 -5.33301 -7.66602 -11.333 -12.999 -18s-11 -13.167 -17 -19.5
l-17 -17.5c-5.33301 -5.33301 -10 -9.33301 -14 -12zM167.003 -112.005c-0.666992 -0.666992 -4.16602 -2.33301 -10.499 -5s-15.333 -5.66699 -27 -9s-23.167 -5 -34.5 -5c-19.333 0 -36.5 4.33301 -51.5 13s-22.5 19.667 -22.5 33c0 11.333 4.66699 20.833 14 28.5
s21.666 11.5 36.999 11.5c10.667 0 21.5 -3.5 32.5 -10.5s21.167 -14.667 30.5 -23s17 -16 23 -23z" />
    <glyph glyph-name="K" unicode="K" horiz-adv-x="575" 
d="M527 628c0 15.333 -6.83301 29.1709 -20.5 41.5039s-37.834 18.5 -72.501 18.5c-22.667 0 -42 -3.83301 -58 -11.5s-30.333 -17.5 -43 -29.5s-24.167 -24.667 -34.5 -38s-21 -26 -32 -38s-23.167 -21.833 -36.5 -29.5s-29 -11.5 -47 -11.5c0 -2.66699 1 -5.16699 3 -7.5
s4.16699 -5 6.5 -8s4.5 -6.83301 6.5 -11.5s3 -10.334 3 -17.001v-341c0 -11.333 -0.666992 -18.333 -2 -21l-2 -4l13 10c8.66699 6.66699 18.167 14.667 28.5 24s19.833 18.833 28.5 28.5s13 17.5 13 23.5v102l18 15c14 0 26.667 -5.83301 38 -17.5s21.333 -26.5 30 -44.5
s16.167 -37.5 22.5 -58.5s11.5 -40.833 15.5 -59.5c3.33301 -14.667 7.83301 -30.667 13.5 -48s12.667 -33.5 21 -48.5s17.833 -27.5 28.5 -37.5s22.334 -15 35.001 -15c2 0 7.66699 4.16699 17 12.5s19.166 17.833 29.499 28.5s19.5 20.667 27.5 30s12 15 12 17
s-1 2.5 -3 1.5s-4.66699 -2.66699 -8 -5l-10.5 -7c-3.66699 -2.33301 -6.83398 -3.5 -9.50098 -3.5c-1.33301 0 -4.83301 0.166992 -10.5 0.5s-12.334 4.16602 -20.001 11.499s-15.667 19.666 -24 36.999s-15.833 43 -22.5 77c-6.66699 34.667 -15.5 64.167 -26.5 88.5
s-22.167 44.333 -33.5 60s-22.5 27.167 -33.5 34.5s-19.833 11 -26.5 11l90 90l5 5c3.33301 3.33301 5 5.66602 5 6.99902c0 3.33301 -2.33301 5 -7 5c-3.33301 0 -6.66602 -2.16699 -9.99902 -6.5s-6.33301 -6.5 -9 -6.5c-2 0.666992 -6.33301 3 -13 7
s-13.667 8.66699 -21 14s-14.166 10.833 -20.499 16.5s-10.166 10.5 -11.499 14.5c0 3.33301 2.5 7 7.5 11s7.5 7.66699 7.5 11v6c0 2.66699 -0.666992 4 -2 4c-0.666992 0 -2.33398 -0.833008 -5.00098 -2.5l-4 -2.5l-92 -93c0 1.33301 0.5 7.33301 1.5 18
s3.16699 23.834 6.5 39.501s8.5 32.167 15.5 49.5s16.333 33.5 28 48.5s26.334 27.5 44.001 37.5s39.167 15 64.5 15c24 0 40.667 -3.83301 50 -11.5s14 -14.167 14 -19.5c-0.666992 0 -3.5 -0.5 -8.5 -1.5s-10.333 -3.33301 -16 -7s-8.5 -9.5 -8.5 -17.5
c0 -6.66699 1.83301 -12.334 5.5 -17.001s10.167 -7 19.5 -7c8 0 15 2.5 21 7.5s9 13.5 9 25.5zM329 63.0049c-10 0 -25.165 4.33301 -45.498 13l-64.5 28l-64 28c-20 8.66699 -34.333 13 -43 13c-12.667 0 -25.334 -4 -38.001 -12s-24 -18 -34 -30s-18.167 -25 -24.5 -39
s-9.5 -27.333 -9.5 -40c0 -15.333 3.33301 -26 10 -32s12.667 -9 18 -9c-0.666992 0 -2 0.5 -4 1.5s-4.33301 4.5 -7 10.5s-4 15 -4 27c0 11.333 5.16699 21.333 15.5 30s19.833 13 28.5 13c13.333 0 29.5 -4.16699 48.5 -12.5l58.5 -27c20 -9.66699 39.667 -18.667 59 -27
s35.666 -12.5 48.999 -12.5c12 0 25 4.33301 39 13s26.667 18.667 38 30s20.833 22.833 28.5 34.5s11.5 20.167 11.5 25.5c0 -0.666992 -1.66699 -3 -5 -7s-10 -8.16699 -20 -12.5s-23.667 -6.5 -41 -6.5zM44.002 224.005c4.66699 -4 9.83301 -8.6709 15.5 -14.0039
s11.334 -11 17.001 -17s11.167 -12.167 16.5 -18.5s9.66602 -12.166 12.999 -17.499l15.5 19.5l17 20.5c5.66699 6.66699 11.167 12.834 16.5 18.501s10 9.83398 14 12.501c-3.33301 2 -7.83301 5.5 -13.5 10.5l-18.5 17c-6.66699 6.33301 -12.834 12.833 -18.501 19.5
s-10.167 12.334 -13.5 17.001c-3.33301 -6 -7.66602 -12.333 -12.999 -19s-11 -13.167 -17 -19.5l-17 -17.5c-5.33301 -5.33301 -10 -9.33301 -14 -12zM44.001 368.001c4.66699 -4 9.83301 -8.6709 15.5 -14.0039s11.334 -11 17.001 -17s11.167 -12.167 16.5 -18.5
s9.66602 -12.166 12.999 -17.499l15.5 19.5l17 20.5c5.66699 6.66699 11.167 12.834 16.5 18.501s10 9.83398 14 12.501c-3.33301 2 -7.83301 5.5 -13.5 10.5l-18.5 17c-6.66699 6.33301 -12.834 12.833 -18.501 19.5s-10.167 12.334 -13.5 17.001
c-3.33301 -6 -7.66602 -12.333 -12.999 -19s-11 -13.167 -17 -19.5l-17 -17.5c-5.33301 -5.33301 -10 -9.33301 -14 -12zM281 450.997l11 7.99805c2.66699 -1.33301 8 -4.16602 16 -8.49902s16 -9.16602 24 -14.499s15.333 -10.5 22 -15.5s10.667 -8.5 12 -10.5l-85 -85v126
z" />
    <glyph glyph-name="L" unicode="L" horiz-adv-x="566" 
d="M207 223c0 -29.333 -1.16602 -51.502 -3.49902 -66.502s-4.5 -24.167 -6.5 -27.5s-3.33301 -5 -4 -5c-1.33301 0.666992 -6 2 -14 4l-29 7c-11.333 2.66699 -19.666 4 -24.999 4c-15.333 0 -30.666 -3.33301 -45.999 -10s-29.333 -15.167 -42 -25.5
s-22.834 -22.333 -30.501 -36s-11.5 -27.5 -11.5 -41.5c0 -10.667 3.16699 -19.5 9.5 -26.5s12.166 -12 17.499 -15s8.33301 -4.5 9 -4.5s0 0.833008 -2 2.5s-4.5 4 -7.5 7s-5.83301 6.66699 -8.5 11s-4 9.5 -4 15.5c0 31.333 20.333 47 61 47
c16.667 0 37.834 -3.83301 63.501 -11.5l81.5 -25c28.667 -9 57 -17.167 85 -24.5s52.667 -11 74 -11c13.333 0 30.666 4.33301 51.999 13s42 20.334 62 35.001s37.167 32 51.5 52s21.5 41.667 21.5 65c0 26 -5.33301 45.833 -16 59.5s-22.167 23.5 -34.5 29.5
s-23.833 9 -34.5 9c-10 0 -14.667 -0.666992 -14 -2c0 -1.33301 4.16699 -2.5 12.5 -3.5s17.166 -3.83301 26.499 -8.5s18 -12 26 -22s12 -24.333 12 -43c0 -18 -3.66699 -33.833 -11 -47.5s-16.166 -25 -26.499 -34s-21.666 -15.667 -33.999 -20s-23.5 -6.5 -33.5 -6.5
c-16 0 -37.167 2.83301 -63.5 8.5s-52 11.834 -77 18.501s-46.5 12.834 -64.5 18.501l-27 8.5l13 11.5c8.66699 7.66699 18.167 16.667 28.5 27s19.833 20.5 28.5 30.5s13 17 13 21v336c0 4 2.66699 13 8 27s13.833 28.5 25.5 43.5s26.167 28.333 43.5 40s38 17.5 62 17.5
c28.667 0 51.334 -6.83301 68.001 -20.5s25 -32.834 25 -57.501c0 -12 -1.83301 -22.333 -5.5 -31s-8.33398 -15.834 -14.001 -21.501s-11.834 -9.66699 -18.501 -12s-13 -3.5 -19 -3.5c-13.333 0 -23.666 2 -30.999 6s-12 7.83301 -14 11.5s-3 5.83398 -3 6.50098
c3.33301 0 6.33301 1.16699 9 3.5s4 6.5 4 12.5c0 4 -1.5 7.83301 -4.5 11.5s-7.16699 5.5 -12.5 5.5c-6 0 -10.333 -2 -13 -6s-4 -8.33301 -4 -13c0 -10.667 6.16699 -21.667 18.5 -33s28.5 -17 48.5 -17c25.333 0 44 8.83301 56 26.5s18 38.834 18 63.501
c0 22.667 -9.16699 42.667 -27.5 60s-45.5 26 -81.5 26c-26 0 -50.333 -6.5 -73 -19.5s-42.5 -27.5 -59.5 -43.5s-31.167 -31.333 -42.5 -46l-21 -27c-2.66699 -2.66699 -7.33398 -4.66699 -14.001 -6s-13.334 -2.33301 -20.001 -3s-12.5 -1.33398 -17.5 -2.00098
s-7.5 -2 -7.5 -4c0 -2.66699 2 -5 6 -7s8.5 -5 13.5 -9s9.5 -9.5 13.5 -16.5s6 -16.5 6 -28.5v-258zM47.001 223.998c9.33301 -7.33301 20.167 -17.6699 32.5 -31.0029s22.166 -25.333 29.499 -36l15.5 19.5l17 20.5c5.66699 6.66699 11.167 12.834 16.5 18.501
s10 9.83398 14 12.501c-3.33301 2 -8 5.5 -14 10.5s-12.167 10.667 -18.5 17s-12.333 12.833 -18 19.5s-10.167 12.334 -13.5 17.001c-3.33301 -6 -7.66602 -12.333 -12.999 -19s-11 -13.167 -17 -19.5l-17 -17.5c-5.33301 -5.33301 -10 -9.33301 -14 -12zM47.002 367.994
c9.33301 -7.33301 20.167 -17.6699 32.5 -31.0029s22.166 -25.333 29.499 -36l15.5 19.5l17 20.5c5.66699 6.66699 11.167 12.834 16.5 18.501s10 9.83398 14 12.501c-3.33301 2 -8 5.5 -14 10.5s-12.167 10.667 -18.5 17s-12.333 12.833 -18 19.5
s-10.167 12.334 -13.5 17.001c-3.33301 -6 -7.66602 -12.333 -12.999 -19s-11 -13.167 -17 -19.5l-17 -17.5c-5.33301 -5.33301 -10 -9.33301 -14 -12z" />
    <glyph glyph-name="M" unicode="M" horiz-adv-x="781" 
d="M13 22c0 6.66699 0.830078 13.332 2.49707 19.999s1.83398 10 0.500977 10s-4.16602 -4.33301 -8.49902 -13s-6.5 -17.667 -6.5 -27c0 -15.333 3.33301 -28.833 10 -40.5s15.5 -21.334 26.5 -29.001s23 -13.5 36 -17.5s26.167 -6 39.5 -6c38.667 0 72 6 100 18
s51 25.333 69 40s31.333 28 40 40l13 18l-1.5 11c-1 7.33301 -2 15.5 -3 24.5s-1.83301 17.833 -2.5 26.5s-1 14.334 -1 17.001v381c0 8 1.33301 14.667 4 20s5.66699 9.66602 9 12.999s6.5 5.83301 9.5 7.5s5.16699 2.5 6.5 2.5c6 0 14.167 -2.83301 24.5 -8.5
s20.5 -12.167 30.5 -19.5s18.833 -14.666 26.5 -21.999s11.5 -12.666 11.5 -15.999v-352c0 -3.33301 -2.16699 -7.33301 -6.5 -12l-14 -14.5l-13.5 -14c-4 -4.33301 -6 -7.5 -6 -9.5c0 -0.666992 4.16699 -4.16699 12.5 -10.5l27 -21
c9.66699 -7.66699 18.667 -15.167 27 -22.5s12.5 -12.666 12.5 -15.999c0 -1.33301 5 2.83398 15 12.501l32.5 32.5l32.5 33l15 15c-4 0 -8 -2.16699 -12 -6.5s-8.66699 -6.5 -14 -6.5c-11.333 0 -19.166 6 -23.499 18s-6.5 26 -6.5 42v319c0 16 3 28.833 9 38.5
s12.5 17.334 19.5 23.001s13.5 9.33398 19.5 11.001l9 2.5c0.666992 0 5 -2.33301 13 -7s16.667 -10 26 -16s17.833 -11.833 25.5 -17.5s11.5 -9.83398 11.5 -12.501v-442c0 -34 -6.16699 -62.333 -18.5 -85s-32.5 -34 -60.5 -34c-18 0 -32.5 2.66699 -43.5 8
s-19.667 11.166 -26 17.499s-10.833 12.166 -13.5 17.499s-5 8 -7 8c-2.66699 0 -2.66699 -3.5 0 -10.5s7.83398 -14.667 15.501 -23s18 -16 31 -23s28.833 -10.5 47.5 -10.5c16.667 0 34 4.33301 52 13s34.5 19.167 49.5 31.5s27.333 25.333 37 39s14.5 25.5 14.5 35.5v460
c0 4.66699 2 8 6 10s8.5 3.5 13.5 4.5s9.66699 2.5 14 4.5s6.5 5.33301 6.5 10c0 4 -3.33301 8.5 -10 13.5s-14.834 10.5 -24.501 16.5l-31 18.5c-11 6.33301 -21.167 12.833 -30.5 19.5c-4 2.66699 -8 7 -12 13s-7.5 11.667 -10.5 17l-8.5 14.5
c-2.66699 4.33301 -5 6.5 -7 6.5c-0.666992 0 -4.5 -5.33301 -11.5 -16s-15.667 -22.5 -26 -35.5s-21.666 -24.833 -33.999 -35.5s-23.833 -16 -34.5 -16c-8 0 -17.833 5 -29.5 15s-23.334 20.833 -35.001 32.5s-22 22.5 -31 32.5s-14.833 15 -17.5 15
c-0.666992 -0.666992 -6.83398 -6.33398 -18.501 -17.001l-45 -41l-54 -49l-47 -41c-13.667 -11.333 -21.5 -17 -23.5 -17c-1.33301 0 0.166992 -2.5 4.5 -7.5s6.5 -9.83301 6.5 -14.5v-320c0 -19.333 -5.16699 -39.5 -15.5 -60.5s-22.833 -40.167 -37.5 -57.5
s-30.167 -31.666 -46.5 -42.999s-30.166 -17 -41.499 -17c-26.667 0 -49 7.66699 -67 23s-27 35.666 -27 60.999zM76.9971 245.998c9.33301 -8 20.1689 -18.5029 32.502 -31.5029s22.166 -24.833 29.499 -35.5l15.5 19.5l17 20l16.5 18
c5.33301 5.66699 10 9.83398 14 12.501c-3.33301 2 -7.83301 5.5 -13.5 10.5s-11.667 10.667 -18 17s-12.5 12.833 -18.5 19.5s-10.333 12.334 -13 17.001l-14 -18c-5.33301 -6.66699 -10.833 -13.167 -16.5 -19.5s-11.334 -12.166 -17.001 -17.499
s-10.5 -9.33301 -14.5 -12zM78 386.995c4.66699 -4 9.83203 -8.66992 15.499 -14.0029s11.334 -11 17.001 -17s11 -12.167 16 -18.5s9.16699 -12.166 12.5 -17.499l15.5 19.5l17 20.5c5.66699 6.66699 11.167 12.834 16.5 18.501s10 9.83398 14 12.501
c-3.33301 2 -7.83301 5.5 -13.5 10.5s-11.667 10.667 -18 17l-18.5 19c-6 6.33301 -10.333 11.833 -13 16.5c-7.33301 -11.333 -17.333 -23.833 -30 -37.5s-23 -23.5 -31 -29.5zM76.998 103.992c4.66699 -4 9.83398 -8.66992 15.501 -14.0029s11.334 -11 17.001 -17
s11.167 -12.167 16.5 -18.5s9.66602 -11.833 12.999 -16.5l15.5 19.5l17 20l16.5 18c5.33301 5.66699 10 9.83398 14 12.501c-3.33301 2 -7.83301 5.5 -13.5 10.5s-11.667 10.667 -18 17s-12.5 12.833 -18.5 19.5s-10.333 12.334 -13 17.001c-4 -6 -8.66699 -12.333 -14 -19
s-10.833 -13.167 -16.5 -19.5s-11.334 -12.166 -17.001 -17.499s-10.5 -9.33301 -14.5 -12z" />
    <glyph glyph-name="N" unicode="N" horiz-adv-x="616" 
d="M82 -64c-18.667 0 -33.665 3.99512 -44.998 11.9951s-18.833 15.5 -22.5 22.5l-6.5 12.5c0 -2 1 -6.5 3 -13.5s6 -14.333 12 -22s14.333 -14.334 25 -20.001s24.667 -8.5 42 -8.5c32 0 61.167 4.83301 87.5 14.5s49 20.167 68 31.5s33.667 21.833 44 31.5l15.5 14.5
l-5 16.5c-3.33301 11 -5 26.167 -5 45.5v382c0 32 1.66699 54 5 66s8.66602 19 15.999 21c0.666992 0 2.16699 -3 4.5 -9s5.83301 -13.5 10.5 -22.5s10.167 -18.667 16.5 -29s13.833 -19.5 22.5 -27.5c16 -15.333 33.667 -29.666 53 -42.999s37.333 -28.666 54 -45.999
s30.667 -37.833 42 -61.5s17 -53.5 17 -89.5s-6.5 -68.167 -19.5 -96.5s-27.333 -52.166 -43 -71.499s-30 -34.166 -43 -44.499l-19.5 -15.5c0.666992 0 3.83398 0.166992 9.50098 0.5s13 0.833008 22 1.5s17.167 1 24.5 1c11.333 0 21.833 -3.33301 31.5 -10
s18.167 -13.834 25.5 -21.501s13.833 -14.834 19.5 -21.501s10.167 -10 13.5 -10l10.5 14c7 9.33301 15.833 19.333 26.5 30c11.333 12 22.333 22.667 33 32s16 15 16 17c0 0.666992 -2.66699 -0.333008 -8 -3l-14.5 -7.5c-4.33301 -2.33301 -6.83301 -3.83301 -7.5 -4.5
c-7.33301 16.667 -16.666 28.5 -27.999 35.5s-22.833 11.5 -34.5 13.5s-21.834 2.33301 -30.501 1s-13.334 -2 -14.001 -2c-1.33301 0 2.66699 6.5 12 19.5s20 30 32 51s23.167 44.833 33.5 71.5s15.5 53.667 15.5 81c0 33.333 -5.83301 63.166 -17.5 89.499
s-25.667 49.833 -42 70.5s-33.333 39 -51 55s-32.834 31 -45.501 45c-9.33301 10.667 -16.666 22 -21.999 34s-9.33301 22.833 -12 32.5s-4.33398 17.334 -5.00098 23.001s-1 7.5 -1 5.5c0 -8 -6.16699 -17.167 -18.5 -27.5s-27.833 -21.166 -46.5 -32.499
s-38.667 -22.333 -60 -33l-60 -29l-46.5 -21c-12.333 -5.33301 -18.5 -8.33301 -18.5 -9c0 -3.33301 3.33301 -4.16602 10 -2.49902s14 3.83398 22 6.50098s15.333 4.33398 22 5.00098s10 -2 10 -8v-374c0 -21.333 -3.16699 -42 -9.5 -62s-15.5 -38 -27.5 -54
s-26.333 -28.833 -43 -38.5s-35 -14.5 -55 -14.5zM50.002 228.995c4.66699 -4 9.83398 -8.66992 15.501 -14.0029s11.334 -11 17.001 -17l16.5 -18c5.33301 -6 9.66602 -11.667 12.999 -17l15.5 19.5l17 20l16.5 18c5.33301 5.66699 10 9.83398 14 12.501
c-3.33301 2 -7.83301 5.5 -13.5 10.5s-11.667 10.667 -18 17s-12.5 12.833 -18.5 19.5s-10.333 12.334 -13 17.001c-4 -6 -8.66699 -12.333 -14 -19s-10.833 -13.167 -16.5 -19.5s-11.334 -12.166 -17.001 -17.499s-10.5 -9.33301 -14.5 -12zM51.002 370.992
c9.33301 -8 20 -18.502 32 -31.502s21.667 -24.833 29 -35.5c9.33301 12 20.333 25.333 33 40s22.667 24.667 30 30c-3.33301 2 -7.83301 5.5 -13.5 10.5s-11.667 10.667 -18 17s-12.5 12.833 -18.5 19.5s-10.333 12.334 -13 17.001l-14 -18
c-5.33301 -6.66699 -10.833 -13.167 -16.5 -19.5s-11.167 -12.166 -16.5 -17.499s-10 -9.33301 -14 -12zM50.002 87.9902c4.66699 -4 9.83398 -8.66992 15.501 -14.0029s11.334 -11 17.001 -17s11.167 -12.167 16.5 -18.5s9.66602 -11.833 12.999 -16.5l15.5 19.5l17 20
l16.5 18c5.33301 5.66699 10 9.83398 14 12.501c-3.33301 2 -7.83301 5.5 -13.5 10.5s-11.667 10.667 -18 17s-12.5 12.833 -18.5 19.5s-10.333 12.334 -13 17.001c-4 -6 -8.66699 -12.333 -14 -19s-10.833 -13.167 -16.5 -19.5s-11.334 -12.166 -17.001 -17.499
s-10.5 -9.33301 -14.5 -12z" />
    <glyph glyph-name="O" unicode="O" horiz-adv-x="640" 
d="M619 334c0 27.333 -5.6709 53.668 -17.0039 79.001s-25.666 49 -42.999 71s-36.166 42 -56.499 60s-39.333 33.333 -57 46s-33 22.5 -46 29.5s-20.5 10.5 -22.5 10.5s-7.33301 -2.66699 -16 -8l-31 -20l-38 -26l-37 -26.5l-28 -21
c-7.33301 -5.66699 -11 -8.83398 -11 -9.50098c0 -1.33301 2.66699 -2 8 -2c6 0 9 -1.66699 9 -5v-22c-1.33301 0 -9.16602 -1.5 -23.499 -4.5s-33 -9.33301 -56 -19s-45.5 -23.667 -67.5 -42s-40.833 -42.833 -56.5 -73.5s-23.5 -68.334 -23.5 -113.001
c0 -36 8.83301 -68.833 26.5 -98.5s40.5 -55 68.5 -76s58.833 -37.167 92.5 -48.5s66.5 -17 98.5 -17c18.667 0 39.834 3.5 63.501 10.5s47.5 17.333 71.5 31s47.5 30.334 70.5 50.001s43.5 42 61.5 67s32.5 52.333 43.5 82s16.5 61.5 16.5 95.5zM493.996 442.002
l-180.998 -180.999v265v8c0 4 0.166992 8 0.5 12s1.16602 7.66699 2.49902 11s3.66602 5 6.99902 5c6 0 16 -4.16699 30 -12.5s28.667 -18.333 44 -30l46 -35.5c15.333 -12 27.5 -21.833 36.5 -29.5s13.833 -11.834 14.5 -12.501zM252.998 70.0029l295.999 295.998l6.5 -13
c3.66699 -7.33301 7.66699 -18.666 12 -33.999s6.5 -31.666 6.5 -48.999c0 -34.667 -8 -66 -24 -94s-34.667 -51.667 -56 -71s-43.333 -34.333 -66 -45s-40.334 -16 -53.001 -16c-22.667 0 -43.667 2.16699 -63 6.5s-33.666 8.5 -42.999 12.5s-14.666 6.33301 -15.999 7z
M539.997 383.001l-305 -305l-23.5 12.5c-15.667 8.33301 -33 21.5 -52 39.5s-36.333 41 -52 69s-23.5 61.667 -23.5 101c0 36 5.16699 65.667 15.5 89s22.666 41.166 36.999 53.499s29 21.333 44 27s27.333 9 37 10s14.834 1.5 15.501 1.5v-298
c0 -4 -1.16699 -8.5 -3.5 -13.5s-4.83301 -9.66699 -7.5 -14s-5.16699 -8 -7.5 -11s-3.5 -4.83301 -3.5 -5.5l9 5.5c6 3.66699 11 7.83398 15 12.501l272 271l7 -8.5l12 -14.5c2.66699 -3.33301 5.66699 -7.83301 9 -13.5zM110.997 246.001
c8.66699 -7.33301 18.502 -16.834 29.502 -28.501s19.5 -22.167 25.5 -31.5l30 35.5c11.333 13 20.333 22.167 27 27.5c-3.33301 2 -7.5 5.33301 -12.5 10l-16 15.5c-5.66699 5.66699 -11.167 11.5 -16.5 17.5s-9.33301 11 -12 15
c-6.66699 -10.667 -15.834 -22.167 -27.501 -34.5s-20.834 -21.166 -27.501 -26.499zM110.999 375c8.66699 -6.66699 18.502 -16 29.502 -28s19.5 -22.667 25.5 -32c8.66699 11.333 18.667 23.5 30 36.5s20.333 22.167 27 27.5c-3.33301 1.33301 -7.5 4.33301 -12.5 9
l-16 15.5c-5.66699 5.66699 -11.167 11.5 -16.5 17.5s-9.33301 11 -12 15c-6.66699 -10 -15.834 -21.333 -27.501 -34s-20.834 -21.667 -27.501 -27z" />
    <glyph glyph-name="P" unicode="P" horiz-adv-x="563" 
d="M265 45c8.66699 -3.33301 18.501 -6.50293 29.501 -9.50293s22 -5.83301 33 -8.5s21.333 -4.83398 31 -6.50098s17.5 -2.5 23.5 -2.5c4 0 11.167 4.5 21.5 13.5s21.833 20.333 34.5 34l40 44.5c14 16 26.667 31.167 38 45.5s20.666 26.833 27.999 37.5s11 17 11 19
c0 2.66699 -1.66699 7.16699 -5 13.5s-6.83301 14.5 -10.5 24.5s-7.16699 21.833 -10.5 35.5s-5 28.5 -5 44.5c0 50 3.5 93 10.5 129s14.667 65.5 23 88.5s16 40.167 23 51.5s10.5 17.666 10.5 18.999c-4 0 -9.83301 -1.5 -17.5 -4.5s-18.5 -6.33301 -32.5 -10
s-32.167 -7 -54.5 -10s-50.5 -4.5 -84.5 -4.5c-18.667 0 -36.334 2 -53.001 6s-33 8.5 -49 13.5s-32.5 9.66699 -49.5 14s-35.5 6.5 -55.5 6.5c-27.333 0 -51 -4.33301 -71 -13s-36.333 -19.167 -49 -31.5s-22 -25.666 -28 -39.999s-9 -27.166 -9 -38.499
c0 -12.667 2.33301 -22.334 7 -29.001s10 -11.334 16 -14.001s11.5 -4.16699 16.5 -4.5s7.83301 -0.5 8.5 -0.5c0 1.33301 -1.83301 2.5 -5.5 3.5s-7.66699 3 -12 6s-8.33301 7.33301 -12 13s-5.5 13.834 -5.5 24.501c0 17.333 9 32.666 27 45.999s40.333 20 67 20
c15.333 0 29.833 -1.5 43.5 -4.5s26.167 -6.66699 37.5 -11s21.666 -8.66602 30.999 -12.999s17.333 -7.83301 24 -10.5c-5.33301 -10 -14.666 -19.833 -27.999 -29.5s-27 -18 -41 -25s-26.667 -12.667 -38 -17s-17.666 -6.5 -18.999 -6.5
c0.666992 0 3.33398 -0.833008 8.00098 -2.5s9.83398 -5.33398 15.501 -11.001s8.5 -13.5 8.5 -23.5v-261c-17.333 6 -34.5 12.333 -51.5 19s-29.5 10 -37.5 10c-9.33301 0 -19.666 -3.16699 -30.999 -9.5s-22 -14 -32 -23s-18.333 -18.667 -25 -29s-10 -19.833 -10 -28.5
c0 -10 2.33301 -18 7 -24s10 -10.5 16 -13.5s11.333 -4.83301 16 -5.5s7 0 7 2c-0.666992 0 -3.33398 0.333008 -8.00098 1s-9.83398 3.33398 -15.501 8.00098s-8.5 12 -8.5 22c0 10.667 3.33301 19.167 10 25.5s16 9.5 28 9.5c10.667 0 28.667 -4.83301 54 -14.5l81 -31.5
v-166c0 -15.333 -4.16699 -28.666 -12.5 -39.999s-21.166 -17 -38.499 -17c-9.33301 0 -18 2 -26 6s-12 11.333 -12 22c0 4.66699 2.33301 9.66699 7 15l7 8c0 0.666992 -1.33301 0.666992 -4 0s-5.5 -2.16699 -8.5 -4.5s-5.83301 -5.66602 -8.5 -9.99902s-4 -9.5 -4 -15.5
c0 -10 5.16699 -18.833 15.5 -26.5s22.166 -11.5 35.499 -11.5c12 0 22.667 2.83301 32 8.5s17.333 11.834 24 18.501s12 12.834 16 18.501s7 8.5 9 8.5c4 0 9.16699 -1.83301 15.5 -5.5l19 -11.5c6.33301 -4 11.666 -7.5 15.999 -10.5s6.5 -3.83301 6.5 -2.5
c0 3.33301 -1.83301 9.83301 -5.5 19.5s-5.5 18.167 -5.5 25.5v142zM51.001 259.997c8.66699 -6.66699 18.499 -15.834 29.499 -27.501s19.833 -22.167 26.5 -31.5l13.5 16.5c5 6.33301 10.167 12.5 15.5 18.5s10.5 11.5 15.5 16.5s9.16699 8.83301 12.5 11.5
c-3.33301 1.33301 -7.66602 4.33301 -12.999 9s-10.833 9.83398 -16.5 15.501s-11.167 11.5 -16.5 17.5s-9.33301 11 -12 15c-6 -10 -14.833 -21.333 -26.5 -34s-21.167 -21.667 -28.5 -27zM51 389.997c8.66699 -7.33301 18.5 -17.002 29.5 -29.002s19.833 -22.667 26.5 -32
c8 11.333 17.667 23.5 29 36.5s20.666 22.167 27.999 27.5c-3.33301 2 -7.66602 5.33301 -12.999 10s-10.833 9.83398 -16.5 15.501s-11.167 11.5 -16.5 17.5s-9.33301 11 -12 15c-6 -10.667 -14.833 -22.167 -26.5 -34.5s-21.167 -21.166 -28.5 -26.499zM289 528.995
c4.66699 -1.33301 12.3359 -3.33008 23.0029 -5.99707s22 -5.33398 34 -8.00098s24 -4.83398 36 -6.50098s21.667 -2.5 29 -2.5c12 0 22.5 1.66699 31.5 5s16.833 7 23.5 11s12.334 8.16699 17.001 12.5s8.66699 7.5 12 9.5c-4 -6.66699 -9.16699 -16.167 -15.5 -28.5
s-12.5 -27.166 -18.5 -44.499s-11.333 -37.333 -16 -60s-7 -47.334 -7 -74.001c0 -31.333 2.66699 -58.166 8 -80.499s11.166 -41.333 17.499 -57s12.166 -27.834 17.499 -36.501s8 -15 8 -19c0 -3.33301 -2.83301 -8.16602 -8.5 -14.499s-12.834 -12.5 -21.501 -18.5
s-18 -11.333 -28 -16s-19.333 -7 -28 -7c-6 0 -14.5 1.16699 -25.5 3.5s-23 5.5 -36 9.5l-40 12.5c-13.667 4.33301 -25.834 8.5 -36.501 12.5v335c0 15.333 2.5 28.166 7.5 38.499s10.5 20.166 16.5 29.499z" />
    <glyph glyph-name="Q" unicode="Q" horiz-adv-x="657" 
d="M540 132c23.333 27.333 42.3311 57.8369 56.998 91.5039s22 70.5 22 110.5c0 27.333 -5.66699 53.666 -17 78.999s-25.666 49 -42.999 71s-36.166 42 -56.499 60s-39.333 33.333 -57 46s-33 22.5 -46 29.5s-20.5 10.5 -22.5 10.5s-7.33301 -2.66699 -16 -8l-31 -20
l-38 -26l-37 -26.5l-28 -21c-7.33301 -5.66699 -11 -8.83398 -11 -9.50098c0 -1.33301 2.66699 -2 8 -2c6 0 9 -1.66699 9 -5v-22c-1.33301 0 -9.16602 -1.5 -23.499 -4.5s-33 -9.33301 -56 -19s-45.5 -23.667 -67.5 -42s-40.833 -42.833 -56.5 -73.5
s-23.5 -68.334 -23.5 -113.001c0 -36 8.83301 -68.833 26.5 -98.5s40.5 -55 68.5 -76s58.833 -37.167 92.5 -48.5s66.5 -17 98.5 -17c22.667 0 48.5 5.16699 77.5 15.5s57.833 25.166 86.5 44.499c4.66699 -2 12.167 -6.16699 22.5 -12.5s20.833 -13.333 31.5 -21
s20.167 -15.667 28.5 -24s12.5 -15.833 12.5 -22.5c0 -1.33301 5.66699 2.5 17 11.5s23.5 19.333 36.5 31l34.5 32c10 9.66699 13.667 14.5 11 14.5c-4 0 -6.66699 -1.5 -8 -4.5s-7.33301 -4.5 -18 -4.5l-8.5 11c-5.66699 7.33301 -12.667 15.5 -21 24.5
s-17.333 17.5 -27 25.5s-18.834 12.333 -27.501 13zM539.998 383.004l-305 -305l-23.5 12.5c-15.667 8.33301 -33 21.5 -52 39.5s-36.333 41 -52 69s-23.5 61.667 -23.5 101c0 36 5.16699 65.667 15.5 89s22.666 41.166 36.999 53.499s29 21.333 44 27s27.333 9 37 10
s14.834 1.5 15.501 1.5v-298c0 -4 -1.16699 -8.5 -3.5 -13.5s-4.83301 -9.66699 -7.5 -14s-5.16699 -8 -7.5 -11s-3.5 -4.83301 -3.5 -5.5l9 5.5c6 3.66699 11 7.83398 15 12.501l272 271l7 -8.5l12 -14.5c2.66699 -3.33301 5.66699 -7.83301 9 -13.5zM252.998 70.0039
l295.999 295.998l6.5 -13c3.66699 -7.33301 7.66699 -18.666 12 -33.999s6.5 -31.666 6.5 -48.999c0 -34.667 -8 -66 -24 -94s-34.667 -51.667 -56 -71s-43.333 -34.333 -66 -45s-40.334 -16 -53.001 -16c-22.667 0 -43.667 2.16699 -63 6.5s-33.666 8.5 -42.999 12.5
s-14.666 6.33301 -15.999 7zM493.997 442.002l-180.998 -180.999v265v8c0 4 0.166992 8 0.5 12s1.16602 7.66699 2.49902 11s3.66602 5 6.99902 5c6 0 16 -4.16699 30 -12.5s28.667 -18.333 44 -30l46 -35.5c15.333 -12 27.5 -21.833 36.5 -29.5
s13.833 -11.834 14.5 -12.501zM110.999 246.003c8.66699 -7.33301 18.502 -16.834 29.502 -28.501s19.5 -22.167 25.5 -31.5l30 35.5c11.333 13 20.333 22.167 27 27.5c-3.33301 2 -7.5 5.33301 -12.5 10l-16 15.5c-5.66699 5.66699 -11.167 11.5 -16.5 17.5
s-9.33301 11 -12 15c-6.66699 -10.667 -15.834 -22.167 -27.501 -34.5s-20.834 -21.166 -27.501 -26.499zM111.001 375.002c8.66699 -6.66699 18.502 -16 29.502 -28s19.5 -22.667 25.5 -32c8.66699 11.333 18.667 23.5 30 36.5s20.333 22.167 27 27.5
c-3.33301 1.33301 -7.5 4.33301 -12.5 9l-16 15.5c-5.66699 5.66699 -11.167 11.5 -16.5 17.5s-9.33301 11 -12 15c-6.66699 -10 -15.834 -21.333 -27.501 -34s-20.834 -21.667 -27.501 -27z" />
    <glyph glyph-name="R" unicode="R" horiz-adv-x="679" 
d="M322 277c3.33301 0 9.16309 -2.50391 17.4961 -7.50391s18.833 -13.333 31.5 -25s27 -27.167 43 -46.5s33.667 -43.333 53 -72c5.33301 -8 11.833 -19.333 19.5 -34s15.667 -29 24 -43s17 -26.333 26 -37s17.5 -16 25.5 -16c6.66699 0 16 5.33301 28 16
s23.833 22.5 35.5 35.5s21.834 25.5 30.501 37.5s13 19.667 13 23c0 2.66699 -1 3.5 -3 2.5s-4.66699 -2.66699 -8 -5s-7.33301 -4.66602 -12 -6.99902s-9.33398 -3.5 -14.001 -3.5c-13.333 0 -26.166 5.33301 -38.499 16s-24.666 24.167 -36.999 40.5
s-24.5 33.833 -36.5 52.5s-23.833 36.167 -35.5 52.5s-23 29.833 -34 40.5s-21.833 16 -32.5 16c1.33301 0.666992 8.16602 3.16699 20.499 7.5s28.166 11.5 47.499 21.5s38.333 21.833 57 35.5s34.667 29.5 48 47.5s20 37.333 20 58c0 4 -0.666992 10.5 -2 19.5
s-4.83301 19 -10.5 30s-13.667 22.333 -24 34s-24.666 22.334 -42.999 32.001s-41 17.667 -68 24s-59.833 9.5 -98.5 9.5c-30.667 0 -58 -1.5 -82 -4.5s-44.667 -6.5 -62 -10.5s-31.333 -7.5 -42 -10.5s-17.667 -4.5 -21 -4.5s-6 1.5 -8 4.5s-3.83301 6.16699 -5.5 9.5
s-3.5 6.5 -5.5 9.5s-5 4.5 -9 4.5c-0.666992 0 -2.83398 -4.83301 -6.50098 -14.5l-13 -35.5l-16 -46.5c-5.66699 -17 -10.5 -32.5 -14.5 -46.5s-7.16699 -25.833 -9.5 -35.5s-2.5 -14.5 -0.5 -14.5c1.33301 0 3.5 3 6.5 9s8 13.333 15 22s16.833 18.167 29.5 28.5
s29.334 19.833 50.001 28.5s46.5 16 77.5 22s68.167 9 111.5 9c59.333 0 103.166 -9.16699 131.499 -27.5s42.5 -43.5 42.5 -75.5c0 -20.667 -7.33301 -39.5 -22 -56.5s-32.167 -31.5 -52.5 -43.5s-41.333 -22.167 -63 -30.5s-39.167 -14.333 -52.5 -18
s-20.666 -5.5 -21.999 -5.5v170c0 2 1.83301 5.16699 5.5 9.5l11.5 13.5l11.5 13.5c3.66699 4.33301 5.5 7.5 5.5 9.5s-5.83301 -1.16699 -17.5 -9.5s-24.5 -18.166 -38.5 -29.499s-26.833 -22.666 -38.5 -33.999s-17.5 -19.333 -17.5 -24v-317l-15.5 8.5
c-10.333 5.66699 -22.666 12 -36.999 19s-28.666 13.333 -42.999 19s-25.5 8.5 -33.5 8.5c-13.333 0 -26.666 -4.33301 -39.999 -13s-25.166 -19 -35.499 -31s-18.833 -24.333 -25.5 -37s-10 -23 -10 -31c0 -12 2.83301 -21.667 8.5 -29s11 -12.333 16 -15
s7.83301 -4 8.5 -4c0 1.33301 -1 2.66602 -3 3.99902s-4.33301 3.5 -7 6.5s-5 6.83301 -7 11.5s-3 10.667 -3 18c0 8 1.83301 15.167 5.5 21.5s8.16699 11.666 13.5 15.999s11.166 7.66602 17.499 9.99902s12.5 3.5 18.5 3.5c12 0 27 -5 45 -15l60 -33.5
c22 -12.333 45.333 -23.5 70 -33.5s49.667 -15 75 -15c8 0 16.667 3 26 9s17.833 13.333 25.5 22s14 18 19 28s7.5 19 7.5 27c0 9.33301 -2 16.833 -6 22.5s-8.5 9.83398 -13.5 12.501s-9.5 4.16699 -13.5 4.5s-6 -0.166992 -6 -1.5c0 -0.666992 1.33301 -1.66699 4 -3
s5.66699 -3.33301 9 -6s6.33301 -6.16699 9 -10.5s4 -9.5 4 -15.5c0 -7.33301 -2.33301 -13.666 -7 -18.999s-11.667 -8 -21 -8c-10 0 -21 2.16699 -33 6.5s-23.333 9.33301 -34 15s-19.5 10.667 -26.5 15l-10.5 6.5l10.5 10c7 6.66699 14.667 14.834 23 24.501
s16 19.667 23 30s10.5 19.5 10.5 27.5v90zM72.9971 230.996c4.66699 -4 9.83203 -8.66895 15.499 -14.002s11.334 -11 17.001 -17s11.167 -12.167 16.5 -18.5s9.66602 -11.833 12.999 -16.5l15.5 19.5l17 20l16.5 18c5.33301 5.66699 10 9.83398 14 12.501
c-3.33301 2 -8 5.5 -14 10.5s-12.167 10.667 -18.5 17s-12.333 12.833 -18 19.5s-10.167 12.334 -13.5 17.001c-3.33301 -6 -7.66602 -12.333 -12.999 -19s-11 -13.167 -17 -19.5l-17 -17.5c-5.33301 -5.33301 -10 -9.33301 -14 -12zM72.9951 374.994
c4.66699 -4 9.83203 -8.66895 15.499 -14.002s11.334 -11 17.001 -17s11.167 -12.167 16.5 -18.5s9.66602 -11.833 12.999 -16.5l15.5 19.5l17 20l16.5 18c5.33301 5.66699 10 9.83398 14 12.501c-3.33301 2 -8 5.5 -14 10.5s-12.167 10.667 -18.5 17
s-12.333 12.833 -18 19.5s-10.167 12.334 -13.5 17.001c-3.33301 -6 -7.66602 -12.333 -12.999 -19s-11 -13.167 -17 -19.5l-17 -17.5c-5.33301 -5.33301 -10 -9.33301 -14 -12z" />
    <glyph glyph-name="S" unicode="S" horiz-adv-x="578" 
d="M296 533c-10.667 -2 -27.002 -6.49805 -49.002 -13.498s-44.167 -17.667 -66.5 -32s-42 -33.166 -59 -56.499s-25.5 -52 -25.5 -86c0 -18.667 3.83301 -36.167 11.5 -52.5s16.167 -30.5 25.5 -42.5s17.833 -21.5 25.5 -28.5l11.5 -10.5c0 -10 -7.66699 -15 -23 -15
c-18 0 -29.5 4.83301 -34.5 14.5s-7.5 19.167 -7.5 28.5v6c-1.33301 0 -2.66602 -1.5 -3.99902 -4.5s-2 -6.5 -2 -10.5c0 -10 3.5 -20.333 10.5 -31s19.167 -16 36.5 -16c11.333 0 21.166 3 29.499 9s15.333 12.667 21 20s10.167 14.166 13.5 20.499
s5.66602 10.166 6.99902 11.499c3.33301 3.33301 9.5 7.83301 18.5 13.5l21.5 13.5c8.66699 -4.66699 17.667 -11.334 27 -20.001s18 -17.334 26 -26.001l21 -22.5c6 -6.33301 10.667 -9.5 14 -9.5c0 6.66699 2.5 15.5 7.5 26.5s11 21.667 18 32s14.333 19.333 22 27
s14.167 11.5 19.5 11.5c10.667 0 20.167 -4.33301 28.5 -13s15.5 -19.334 21.5 -32.001s10.5 -26.167 13.5 -40.5s4.5 -26.833 4.5 -37.5c0 -24.667 -4.33301 -46.167 -13 -64.5s-19.167 -33.5 -31.5 -45.5s-25.166 -21 -38.499 -27s-24.333 -9 -33 -9
s-17.667 3.33301 -27 10s-18.833 15 -28.5 25s-19.334 21 -29.001 33s-19.167 23 -28.5 33s-18.333 18.333 -27 25s-16.667 10 -24 10v18c0 2 -1 3 -3 3c-1.33301 0 -3.33301 -2.33301 -6 -7s-6.66699 -9.66699 -12 -15s-12.333 -10.333 -21 -15s-19.667 -7 -33 -7
c-6 0 -15.833 -0.666992 -29.5 -2s-27.167 -4.66602 -40.5 -9.99902s-25.166 -13 -35.499 -23s-15.5 -23.667 -15.5 -41c0 -16 3.66699 -28.167 11 -36.5s15.166 -14.166 23.499 -17.499s16.166 -5 23.499 -5s11 0.666992 11 2c0 0.666992 -2.66699 1.66699 -8 3
s-11.333 3.5 -18 6.5s-12.667 7.66699 -18 14s-8 15.5 -8 27.5c0 7.33301 2 14.333 6 21s9.33301 12.5 16 17.5s14 8.83301 22 11.5s16 4 24 4c16 0 29.333 -2.66699 40 -8s20.167 -12.166 28.5 -20.499s16.333 -17.166 24 -26.499s16.167 -18.166 25.5 -26.499
s20.166 -15.166 32.499 -20.499s27.833 -8 46.5 -8c50.667 0 93.834 6.5 129.501 19.5s64.834 29.5 87.501 49.5s39.167 42.167 49.5 66.5s15.5 47.833 15.5 70.5c0 27.333 -3.83301 50.833 -11.5 70.5s-16.5 35.667 -26.5 48s-19.667 21.5 -29 27.5s-16 9 -20 9
c0 2.66699 3 6.33398 9 11.001s13.333 7 22 7c6.66699 0 11.167 -1.66699 13.5 -5s3.5 -3.66602 3.5 -0.999023s-1.16699 6 -3.5 10s-6.5 6 -12.5 6c-14.667 0 -28.334 -4.5 -41.001 -13.5s-24.167 -19 -34.5 -30s-19.333 -21 -27 -30s-13.5 -13.5 -17.5 -13.5
c-3.33301 0 -8.83301 3.66699 -16.5 11s-15.667 15.666 -24 24.999s-16 18.666 -23 27.999s-11.5 15.666 -13.5 18.999c-1.33301 -2.66699 -3.33301 -7.83398 -6 -15.501s-6.5 -16.334 -11.5 -26.001s-10.833 -19.5 -17.5 -29.5s-14 -18.667 -22 -26
c-4 5.33301 -10 12.5 -18 21.5s-16.167 19.167 -24.5 30.5s-15.666 23.666 -21.999 36.999s-9.5 27.333 -9.5 42c0 21.333 4.83301 38.833 14.5 52.5s20.834 24.5 33.501 32.5s25.334 14 38.001 18s22.334 7.66699 29.001 11c11.333 -11.333 26.833 -22.833 46.5 -34.5
s37.167 -24.834 52.5 -39.501c4.66699 -4.66699 8.33398 -11 11.001 -19s4.5 -16 5.5 -24s1.66699 -14.833 2 -20.5s0.5 -8.83398 0.5 -9.50098c17.333 20 34.833 34.167 52.5 42.5s29.167 12.5 34.5 12.5c6 0 11 -1.66699 15 -5s6 -3 6 1c0 2 -2.33301 5.33301 -7 10
s-12 7 -22 7c0 8 -5.5 18.167 -16.5 30.5s-23.833 25.5 -38.5 39.5c-10 9.33301 -20.167 17.5 -30.5 24.5l-28.5 19.5c-8.66699 6 -15.834 11.5 -21.501 16.5s-8.5 10.167 -8.5 15.5c0 6 1.66699 10.833 5 14.5s7 5.5 11 5.5c6 0 11.833 -0.666992 17.5 -2l8.5 -2
c-0.666992 3.33301 -4 6.33301 -10 9s-13 4 -21 4c-2.66699 0 -8.16699 -2.66699 -16.5 -8s-16.833 -11.666 -25.5 -18.999s-16.5 -15.166 -23.5 -23.499s-10.5 -15.833 -10.5 -22.5c0 -6 2.66699 -12.333 8 -19z" />
    <glyph glyph-name="T" unicode="T" horiz-adv-x="577" 
d="M5 497c1.33301 -17.333 7.49707 -30.335 18.4971 -39.002s22.167 -13 33.5 -13c13.333 0 26 4.66699 38 14s18 20 18 32c0 8.66699 -3.66699 15.834 -11 21.501s-15 8.5 -23 8.5c-11.333 0 -20.5 -2.33301 -27.5 -7s-10.5 -10.667 -10.5 -18
c0 -6.66699 2 -11.167 6 -13.5s8.33301 -3.5 13 -3.5c5.33301 0 9.33301 1.83301 12 5.5s4 6.5 4 8.5s-0.666992 4 -2 6s-2.16602 3.66699 -2.49902 5s0 2.5 1 3.5s4.16699 1.5 9.5 1.5c3.33301 0 7 -1.16699 11 -3.5s6 -6.83301 6 -13.5c0 -10.667 -4.33301 -19 -13 -25
s-18.334 -9 -29.001 -9c-8.66699 0 -16.167 3.33301 -22.5 10s-9.5 16 -9.5 28c0 10.667 2.66699 20.5 8 29.5s12.666 16.833 21.999 23.5s20.166 11.834 32.499 15.501s25.5 5.5 39.5 5.5c12.667 0 26 -1.66699 40 -5s26.833 -6.83301 38.5 -10.5
s21.334 -7.16699 29.001 -10.5l11.5 -5c-1.33301 -0.666992 -9.33301 -4.16699 -24 -10.5s-33.667 -17.166 -57 -32.499s-46 -34.333 -68 -57s-41 -50.834 -57 -84.501s-24 -71.834 -24 -114.501c0 -40 10.667 -75.833 32 -107.5s48.5 -58.667 81.5 -81
s69.167 -39.5 108.5 -51.5s77.333 -18 114 -18c14.667 0 30.334 5 47.001 15s32.834 22.833 48.501 38.5s30.667 33.5 45 53.5s27 39.833 38 59.5s19.667 38.167 26 55.5s9.5 31.666 9.5 42.999c-0.666992 -0.666992 -4.5 -6.83398 -11.5 -18.501s-16.5 -26.667 -28.5 -45
s-24.667 -36.166 -38 -53.499s-26.5 -32.166 -39.5 -44.499s-24.167 -18.5 -33.5 -18.5c-40 0 -79.333 5.83301 -118 17.5s-73.167 27 -103.5 46s-54.833 40.667 -73.5 65s-28 49.5 -28 75.5c0 43.333 7.33301 81.5 22 114.5s31.5 60.5 50.5 82.5s37.833 38.667 56.5 50
s32 17 40 17l-10 -19.5c-6.66699 -13 -10 -30.167 -10 -51.5v-230c0 -10 -1.66699 -21 -5 -33s-7 -23.167 -11 -33.5s-7.66699 -18.833 -11 -25.5l-5 -10l17 16c11.333 10.667 24 23.334 38 38.001s26.667 29.5 38 44.5s17 26.833 17 35.5v249l13.5 -4.5
c9 -3 20 -6.33301 33 -10s27 -7 42 -10s28.5 -4.5 40.5 -4.5c20 0 37.833 3.33301 53.5 10s29 15.5 40 26.5s19.333 23.333 25 37s8.5 27.167 8.5 40.5c0 14 -3.33301 24.667 -10 32s-10.667 11 -12 11s-0.666016 -2.66699 2.00098 -8s4 -12 4 -20
c0 -15.333 -8.16699 -27.833 -24.5 -37.5s-37.166 -14.5 -62.499 -14.5c-17.333 0 -38 3.83301 -62 11.5l-76 25c-26.667 9 -54 17.333 -82 25s-55 11.5 -81 11.5c-59.333 0 -101.833 -12.833 -127.5 -38.5s-38.5 -59.167 -38.5 -100.5zM116.997 238.998
c8.66699 -6.66699 18.5 -15.833 29.5 -27.5s19.833 -22.167 26.5 -31.5c8 10.667 17.667 22.5 29 35.5s20.333 22.167 27 27.5c-3.33301 1.33301 -7.5 4.33301 -12.5 9l-16 15.5c-5.66699 5.66699 -11.167 11.5 -16.5 17.5s-9.33301 11.333 -12 16
c-3.33301 -5.33301 -7.5 -11 -12.5 -17l-15 -17.5c-5 -5.66699 -10 -11 -15 -16s-9.16699 -8.83301 -12.5 -11.5zM116.997 368.999c8.66699 -7.33301 18.502 -16.833 29.502 -28.5s19.833 -22.167 26.5 -31.5c8 10.667 17.667 22.667 29 36s20.333 22.666 27 27.999
c-3.33301 1.33301 -7.5 4.33301 -12.5 9l-16 15.5c-5.66699 5.66699 -11.167 11.5 -16.5 17.5s-9.33301 11 -12 15c-6.66699 -10.667 -15.834 -22.167 -27.501 -34.5s-20.834 -21.166 -27.501 -26.499z" />
    <glyph glyph-name="U" unicode="U" horiz-adv-x="660" 
d="M373 570c16.667 1.33301 31.667 7.00391 45 17.0039s24.833 21.167 34.5 33.5s17.167 24.333 22.5 36s8 20.167 8 25.5c0 2.66699 -1.66699 1.66699 -5 -3s-8.33301 -10.167 -15 -16.5s-14.667 -12.5 -24 -18.5s-20.333 -9 -33 -9c-17.333 0 -34.166 1.83301 -50.499 5.5
s-32.166 7.66699 -47.499 12s-30.5 8.33301 -45.5 12s-29.833 5.5 -44.5 5.5c-22 0 -41.833 -3.83301 -59.5 -11.5s-32.667 -17 -45 -28s-21.833 -23.167 -28.5 -36.5s-10 -25.333 -10 -36c0 -14 2.66699 -25.667 8 -35s11 -16.333 17 -21s11.667 -7.66699 17 -9s8 -1 8 1
c0 1.33301 -1.66699 3 -5 5s-7.16602 5 -11.499 9s-8.16602 9.66699 -11.499 17s-5 16.666 -5 27.999c0 10.667 2.83301 19.167 8.5 25.5s12 11.166 19 14.499s13.667 5.5 20 6.5s10.166 1.5 11.499 1.5c2 0 10.5 -1.5 25.5 -4.5l53.5 -10.5
c20.667 -4 42.5 -7.66699 65.5 -11s43.833 -5 62.5 -5c-8.66699 -6.66699 -17.834 -14.5 -27.501 -23.5s-18.667 -17.833 -27 -26.5s-15.333 -16.667 -21 -24s-8.5 -12.666 -8.5 -15.999v-262c0 -21.333 -2.83301 -40.666 -8.5 -57.999s-15.5 -32 -29.5 -44
c-1.33301 0.666992 -6.5 2.33398 -15.5 5.00098s-21 5.5 -36 8.5s-28.833 4.5 -41.5 4.5c-19.333 0 -37.666 -3.16699 -54.999 -9.5s-32.666 -14.833 -45.999 -25.5s-23.833 -22.834 -31.5 -36.501s-11.5 -27.834 -11.5 -42.501c0 -13.333 3 -23.333 9 -30
s12.5 -11.167 19.5 -13.5s13.5 -3.16602 19.5 -2.49902s9 1.66699 9 3c0 2 -2.16699 3.16699 -6.5 3.5s-9 1.5 -14 3.5s-9.66699 5.33301 -14 10s-6.5 12.667 -6.5 24c0 8 1.66699 16 5 24s8 15.167 14 21.5s13.167 11.666 21.5 15.999s17.5 6.5 27.5 6.5
c17.333 0 33.5 -4.66699 48.5 -14l48 -30.5c17 -11 36 -21 57 -30s46.167 -13.5 75.5 -13.5c16 0 35.167 2.16699 57.5 6.5s45.166 10.833 68.499 19.5s46.5 19.167 69.5 31.5s43.5 26.666 61.5 42.999s32.667 34.5 44 54.5s17 41.667 17 65c0 20 -2.5 40.667 -7.5 62
s-10.667 41.5 -17 60.5l-17 51.5c-5 15.333 -7.5 27.666 -7.5 36.999s2.66699 17.833 8 25.5s10.666 14.5 15.999 20.5l15 3c10 2 20.833 6.33301 32.5 13s22.5 16.167 32.5 28.5s15 28.5 15 48.5c0 12.667 -3.33301 22.834 -10 30.501s-10.334 11.5 -11.001 11.5
c-2.66699 0 -3.33398 -3 -2.00098 -9s2 -13 2 -21c0 -14.667 -3.33301 -24.5 -10 -29.5s-15 -7.5 -25 -7.5c-9.33301 0 -19.666 1.33301 -30.999 4s-22.833 5.66699 -34.5 9s-23.334 6.33301 -35.001 9s-22.167 4 -31.5 4c-8 0 -17.667 -1.83301 -29 -5.5
s-22.333 -8.66699 -33 -15s-19.834 -14.166 -27.501 -23.499s-11.5 -20 -11.5 -32c0 -6 1 -10.333 3 -13s3 -3.33398 3 -2.00098c0 7.33301 1.83301 14.166 5.5 20.499s9.5 9.5 17.5 9.5c4 0 10.5 -1.83301 19.5 -5.5l31.5 -12.5c12 -4.66699 24.667 -8.83398 38 -12.501
s26.666 -5.5 39.999 -5.5h13c0 -6 -3.16699 -12.667 -9.5 -20s-13.333 -16.166 -21 -26.499s-14.667 -22.5 -21 -36.5s-9.5 -30.333 -9.5 -49c0 -16 1.5 -32.833 4.5 -50.5s6.33301 -34.5 10 -50.5l10 -44.5c3 -13.667 4.5 -24.5 4.5 -32.5c0 -14 -2.33301 -27.667 -7 -41
s-12.5 -25 -23.5 -35s-25.5 -18 -43.5 -24s-40.333 -9 -67 -9c-15.333 0 -32.666 3.16699 -51.999 9.5s-37.666 13.166 -54.999 20.499s-31.833 14.166 -43.5 20.499l-17.5 9.5c25.333 14.667 46 27.334 62 38.001s28.5 20 37.5 28s15 14.667 18 20s4.5 9.66602 4.5 12.999
v332c0 8.66699 3.33301 17.334 10 26.001zM112 238.004c9.33301 -7.33301 20.334 -17.5029 33.001 -30.5029s22.667 -24.833 30 -35.5l15.5 19.5l17 20l16.5 18c5.33301 5.66699 10 9.83398 14 12.501c-3.33301 2 -8 5.5 -14 10.5s-12.167 10.667 -18.5 17
s-12.5 12.833 -18.5 19.5s-10.333 12.334 -13 17.001c-4 -6 -8.66699 -12.333 -14 -19s-10.833 -13.167 -16.5 -19.5s-11.334 -12.166 -17.001 -17.499s-10.5 -9.33301 -14.5 -12zM112.001 382.001c9.33301 -7.33301 20.334 -17.5029 33.001 -30.5029
s22.667 -24.833 30 -35.5l15.5 19.5l17 20l16.5 18c5.33301 5.66699 10 9.83398 14 12.501c-3.33301 2 -8 5.5 -14 10.5s-12.167 10.667 -18.5 17s-12.5 12.833 -18.5 19.5s-10.333 12.334 -13 17.001c-4 -6 -8.66699 -12.333 -14 -19s-10.833 -13.167 -16.5 -19.5
s-11.334 -12.166 -17.001 -17.499s-10.5 -9.33301 -14.5 -12z" />
    <glyph glyph-name="V" unicode="V" horiz-adv-x="623" 
d="M247 176l60.998 35.5078c15.333 9 27.166 17 35.499 24s13.833 13.833 16.5 20.5s4 14.667 4 24v264c0 3.33301 -5.16699 7.33301 -15.5 12s-21.833 10.834 -34.5 18.501s-24.167 17.5 -34.5 29.5s-15.5 27 -15.5 45c0 12.667 2.16699 23 6.5 31s9 14.667 14 20
s9.66699 9.33301 14 12s6.5 4.66699 6.5 6s-6.33301 0.166016 -19 -3.50098s-26.5 -10.667 -41.5 -21s-28.667 -24.333 -41 -42s-18.5 -39.5 -18.5 -65.5c0 -19.333 4.66699 -33 14 -41s19.833 -14.333 31.5 -19s22.167 -9.66699 31.5 -15s14 -15.333 14 -30v-236
c0 -15.333 -2.83301 -27.166 -8.5 -35.499s-15.5 -18.5 -29.5 -30.5l-22 5.5c-14.667 3.66699 -32 5.5 -52 5.5c-19.333 0 -38.666 -3.33301 -57.999 -10s-36.833 -16 -52.5 -28s-28.334 -26 -38.001 -42s-14.5 -33.333 -14.5 -52c0 -14.667 3.16699 -27.5 9.5 -38.5
s13.166 -19.833 20.499 -26.5s14.166 -11.334 20.499 -14.001s9.5 -3 9.5 -1s-2.16699 4.66699 -6.5 8s-9 7.66602 -14 12.999s-9.5 11.833 -13.5 19.5s-6 16.5 -6 26.5s1.83301 20 5.5 30s9 19.167 16 27.5s15.5 15.166 25.5 20.499s21 8 33 8
c15.333 0 32.833 -2.33301 52.5 -7s39.834 -10.667 60.501 -18s40.834 -15.833 60.501 -25.5s37.334 -19.334 53.001 -29.001s28.167 -19.167 37.5 -28.5s14 -17.333 14 -24c0 -2 3.83301 -0.5 11.5 4.5s17.334 12.167 29.001 21.5s24.334 20.666 38.001 33.999
s26.334 27.5 38.001 42.5s21.334 30.5 29.001 46.5s11.5 31.667 11.5 47v281l21.5 2c14.333 1.33301 30.166 4.83301 47.499 10.5s33.166 14.334 47.499 26.001s21.5 28.167 21.5 49.5c0 13.333 -3.5 23.833 -10.5 31.5l-10.5 11.5c-2 0 -1.66699 -3 1 -9s4 -12.667 4 -20
c0 -14.667 -4.5 -24.834 -13.5 -30.501s-19.833 -8.5 -32.5 -8.5s-26 1.5 -40 4.5s-27.667 6.16699 -41 9.5s-25.333 6.5 -36 9.5s-19 4.5 -25 4.5c-22 0 -38.333 -4.83301 -49 -14.5s-17.834 -20.334 -21.501 -32.001s-5.16699 -22.334 -4.5 -32.001
s1.33398 -14.5 2.00098 -14.5s1.33398 1.66699 2.00098 5s1.83398 6.83301 3.50098 10.5s4.16699 7.16699 7.5 10.5s8 5 14 5l12.5 -4c8.33301 -2.66699 17.666 -5.83398 27.999 -9.50098s20 -6.83398 29 -9.50098s14.5 -4 16.5 -4c0 -16 -3 -28 -9 -36
s-12.5 -15.333 -19.5 -22s-13.333 -13.5 -19 -20.5s-8.5 -17.5 -8.5 -31.5v-247c0 -19.333 -3 -35 -9 -47s-9 -17.333 -9 -16c-13.333 22.667 -30.5 41.667 -51.5 57s-41.833 27.5 -62.5 36.5s-38.334 15.333 -53.001 19zM86.998 279.008
c4.66699 -4 9.83398 -8.66992 15.501 -14.0029s11.334 -11 17.001 -17s11.167 -12.167 16.5 -18.5s9.66602 -12.166 12.999 -17.499l15.5 19.5l17 20.5c5.66699 6.66699 11.167 12.834 16.5 18.501s10 9.83398 14 12.501c-3.33301 2 -7.83301 5.5 -13.5 10.5l-18.5 17
c-6.66699 6.33301 -12.834 12.666 -18.501 18.999s-10.167 11.833 -13.5 16.5c-3.33301 -5.33301 -7.66602 -11.333 -12.999 -18s-10.833 -13.167 -16.5 -19.5s-11.334 -12.166 -17.001 -17.499s-10.5 -9.33301 -14.5 -12zM86.998 423.005
c4.66699 -4 9.83398 -8.66992 15.501 -14.0029s11.334 -11 17.001 -17s11.167 -12.167 16.5 -18.5s9.66602 -12.166 12.999 -17.499l15.5 19.5l17 20.5c5.66699 6.66699 11.167 12.834 16.5 18.501s10 9.83398 14 12.501c-3.33301 2 -7.83301 5.5 -13.5 10.5l-18.5 17
c-6.66699 6.33301 -12.834 12.666 -18.501 18.999s-10.167 11.833 -13.5 16.5c-3.33301 -5.33301 -7.66602 -11.333 -12.999 -18s-10.833 -13.167 -16.5 -19.5s-11.334 -12.166 -17.001 -17.499s-10.5 -9.33301 -14.5 -12z" />
    <glyph glyph-name="W" unicode="W" horiz-adv-x="886" 
d="M411 -1c9.33301 0 20.6562 5.33105 33.9893 15.998s26 22.334 38 35.001s22.333 24.334 31 35.001l13 16c5.33301 0 14.166 -3.83301 26.499 -11.5s24.833 -16.834 37.5 -27.501s23.834 -21.834 33.501 -33.501s14.5 -21.167 14.5 -28.5c0 -2 3.83301 -0.5 11.5 4.5
s17.334 12.167 29.001 21.5s24.334 20.5 38.001 33.5s26.334 27 38.001 42s21.334 30.5 29.001 46.5s11.5 31.667 11.5 47v281c2 0 10.5 0.666992 25.5 2s30.833 5 47.5 11s31.834 14.833 45.501 26.5s20.5 27.834 20.5 48.501c0 15.333 -3.5 26.333 -10.5 33
s-11.167 10 -12.5 10s-0.833008 -2.16699 1.5 -6.5s3.5 -12.166 3.5 -23.499c0 -15.333 -3.66699 -25.333 -11 -30s-18.666 -7 -33.999 -7c-12 0 -25.333 1.33301 -40 4s-28.667 5.83398 -42 9.50098s-25.5 6.83398 -36.5 9.50098s-19.5 4 -25.5 4
c-22.667 0 -39.167 -5.33301 -49.5 -16s-17.333 -22 -21 -34s-5 -22.667 -4 -32s1.83301 -13 2.5 -11c2.66699 12.667 6.33398 21.167 11.001 25.5s10 6.5 16 6.5c1.33301 0 6.5 -1.5 15.5 -4.5l30 -10.5c11 -4 21.167 -7.5 30.5 -10.5s14.666 -4.5 15.999 -4.5
c0 -12.667 -3.16699 -23.334 -9.5 -32.001s-13.5 -16.667 -21.5 -24s-15.167 -15 -21.5 -23s-9.5 -17.667 -9.5 -29v-247c0 -18.667 -2.83301 -34.167 -8.5 -46.5s-8.83398 -17.833 -9.50098 -16.5c-11.333 20 -24.666 34.167 -39.999 42.5s-30.5 13.666 -45.5 15.999
s-28.667 2.83301 -41 1.5s-21.5 -2 -27.5 -2c-0.666992 0 0.333008 2.5 3 7.5s5.66699 11.333 9 19s6.5 16.167 9.5 25.5s4.5 18.333 4.5 27v245c0 4 3.16699 8.83301 9.5 14.5l19.5 17c6.66699 5.66699 11.834 10.5 15.501 14.5s3.16699 6 -1.5 6
c-12 0 -23.667 3.66699 -35 11s-21.833 15.333 -31.5 24l-26.5 24c-8 7.33301 -15 11 -21 11c-4.66699 0 -10.667 -4 -18 -12s-14.166 -17 -20.499 -27s-11.166 -19 -14.499 -27s-3.33301 -12 0 -12c2.66699 0 4.83398 0.5 6.50098 1.5s4.5 1.5 8.5 1.5
c6 0 13.167 -2.66699 21.5 -8s16.666 -11 24.999 -17l23 -17c7 -5.33301 12.167 -8 15.5 -8c0 -4.66699 -3 -9.33398 -9 -14.001l-20.5 -16.5c-7.66699 -6.33301 -14.5 -13.5 -20.5 -21.5s-9 -17.333 -9 -28v-236c0 -4.66699 -0.833008 -10.667 -2.5 -18
s-3.66699 -14.333 -6 -21s-4.5 -12.5 -6.5 -17.5s-3 -7.16699 -3 -6.5c-11.333 20 -29.333 37.333 -54 52s-49.5 26.834 -74.5 36.501s-46.833 17 -65.5 22l-28 7.5l61.5 35.5c15.667 9 27.834 17 36.501 24s14.5 13.833 17.5 20.5s4.5 14.667 4.5 24v264
c0 4 -5.33301 8.16699 -16 12.5s-22.167 10.333 -34.5 18s-23.833 17.334 -34.5 29.001s-16 27.167 -16 46.5c0 12 2.16699 22 6.5 30s9.16602 14.833 14.499 20.5s10.166 9.83398 14.499 12.501s6.5 4.33398 6.5 5.00098c0 1.33301 -6.33301 0 -19 -4
s-26.5 -11.333 -41.5 -22s-28.833 -24.834 -41.5 -42.501s-19 -39.5 -19 -65.5c0 -18 4.66699 -31 14 -39s19.833 -14.5 31.5 -19.5s22.167 -10.333 31.5 -16s14 -15.167 14 -28.5v-236c0 -15.333 -3.16699 -27.166 -9.5 -35.499s-16.5 -18.5 -30.5 -30.5l-20.5 4
c-13.667 2.66699 -30.5 4 -50.5 4c-23.333 0 -45.166 -3.83301 -65.499 -11.5s-37.833 -17.5 -52.5 -29.5s-26.167 -25.667 -34.5 -41s-12.5 -31 -12.5 -47c0 -13.333 3.16699 -25.333 9.5 -36s13.333 -19.5 21 -26.5s14.667 -12 21 -15s9.5 -3.83301 9.5 -2.5
c0 0.666992 -2.16699 2.66699 -6.5 6s-9 7.66602 -14 12.999s-9.5 12 -13.5 20s-6 17.333 -6 28c0 7.33301 1.33301 15.833 4 25.5s7.16699 19 13.5 28s15 16.667 26 23s24.833 9.5 41.5 9.5c38.667 0 76.334 -6.83301 113.001 -20.5s69.334 -28.834 98.001 -45.501
s51.667 -31.834 69 -45.501zM88.9902 273.998c4.66699 -4 9.83301 -8.66895 15.5 -14.002s11.334 -11 17.001 -17l16.5 -18c5.33301 -6 9.66602 -11.667 12.999 -17l15.5 19.5l17 20l16.5 18c5.33301 5.66699 10 9.83398 14 12.501c-3.33301 2 -7.83301 5.5 -13.5 10.5
l-18.5 17c-6.66699 6.33301 -12.834 12.833 -18.501 19.5s-10.167 12.334 -13.5 17.001c-3.33301 -6 -7.66602 -12.333 -12.999 -19s-11 -13.167 -17 -19.5l-17 -17.5c-5.33301 -5.33301 -10 -9.33301 -14 -12zM88.9893 417.996c4.66699 -4 9.83301 -8.66895 15.5 -14.002
s11.334 -11 17.001 -17l16.5 -18c5.33301 -6 9.66602 -11.667 12.999 -17l15.5 19.5l17 20l16.5 18c5.33301 5.66699 10 9.83398 14 12.501c-3.33301 2 -7.83301 5.5 -13.5 10.5l-18.5 17c-6.66699 6.33301 -12.834 12.833 -18.501 19.5s-10.167 12.334 -13.5 17.001
c-3.33301 -6 -7.66602 -12.333 -12.999 -19s-11 -13.167 -17 -19.5l-17 -17.5c-5.33301 -5.33301 -10 -9.33301 -14 -12z" />
    <glyph glyph-name="X" unicode="X" horiz-adv-x="691" 
d="M358 374c3.33301 32.667 10.6611 64.168 21.9941 94.501s30.333 54.166 57 71.499c1.33301 0.666992 4.5 -1.16602 9.5 -5.49902s11.333 -9.33301 19 -15s16.334 -10.834 26.001 -15.501s20.167 -7 31.5 -7c6.66699 0 12.5 2.16699 17.5 6.5s9.83301 9.5 14.5 15.5
s9.33398 12.333 14.001 19s10.334 12.334 17.001 17.001c6 4 13 7.83301 21 11.5l23.5 10.5c7.66699 3.33301 14 6.33301 19 9s7.5 5 7.5 7s-2.33301 2.16699 -7 0.5s-10.5 -4 -17.5 -7s-14.833 -5.83301 -23.5 -8.5s-16.667 -4 -24 -4c-6 0 -12.833 2.16699 -20.5 6.5
s-14.834 9.33301 -21.501 15s-12.334 11.167 -17.001 16.5s-7 9 -7 11c0 2.66699 1 6.33398 3 11.001s3.83301 9.16699 5.5 13.5s2.83398 8.16602 3.50098 11.499s-0.333008 5 -3 5s-7 -5.16699 -13 -15.5l-19.5 -34c-7 -12.333 -14 -23.666 -21 -33.999
s-13.5 -15.5 -19.5 -15.5c-1.33301 0 -6.16602 -2 -14.499 -6s-18.166 -10.667 -29.499 -20s-23.166 -21.333 -35.499 -36s-23.166 -33 -32.499 -55c-6.66699 25.333 -14.667 49 -24 71s-19.666 41.333 -30.999 58s-23.333 29.667 -36 39s-25 14 -37 14
c-2 0 -7.66699 -2.33301 -17 -7l-33.5 -17.5c-13 -7 -26.667 -14.833 -41 -23.5l-39.5 -24.5c-12 -7.66699 -22 -14.334 -30 -20.001s-12 -9.5 -12 -11.5c0 -2.66699 3 -2.66699 9 0l23.5 10c9.66699 4 20.167 8 31.5 12s22.333 6 33 6c19.333 0 36.166 -5.5 50.499 -16.5
s26.666 -25.167 36.999 -42.5s18.666 -36.833 24.999 -58.5s10.833 -42.834 13.5 -63.501h-43c-10 0 -19.833 -5 -29.5 -15s-18.167 -21.167 -25.5 -33.5s-13.333 -23.5 -18 -33.5l-7 -15c4.66699 3.33301 9.33398 6 14.001 8s11.5 3.66699 20.5 5s20.667 2.33301 35 3
s33.5 1 57.5 1c-1.33301 -40 -5.5 -73.5 -12.5 -100.5s-15 -49 -24 -66s-17.5 -29.667 -25.5 -38l-16 -16.5l-9.5 7.5c-6.33301 5 -14.5 10.667 -24.5 17s-21.833 12 -35.5 17s-28.167 7.5 -43.5 7.5c-21.333 0 -39.666 -4.33301 -54.999 -13s-23 -22.667 -23 -42
c0 -4.66699 1.66699 -10.834 5 -18.501s8.83301 -15.167 16.5 -22.5s17.334 -13.666 29.001 -18.999s25.834 -8 42.501 -8c24.667 0 46.834 2.83301 66.501 8.5s34.167 11 43.5 16s14.666 7.83301 15.999 8.5l11.5 -7c7.66699 -4.66699 17.5 -10 29.5 -16
s25.5 -11.333 40.5 -16s29.833 -7 44.5 -7c23.333 0 42.833 5.16699 58.5 15.5s23.5 22.833 23.5 37.5c0 9.33301 -2.5 16.5 -7.5 21.5s-10.5 7.5 -16.5 7.5c-3.33301 0 -7.33301 -1.33301 -12 -4s-7 -6.33398 -7 -11.001c0 -4 1.66699 -7.16699 5 -9.5s7 -4.33301 11 -6
s7.66699 -3 11 -4l5 -1.5c0 -5.33301 -2.16699 -10.166 -6.5 -14.499s-10 -8 -17 -11s-14.5 -5.33301 -22.5 -7s-15.333 -2.5 -22 -2.5c-12.667 0 -25.834 2.33301 -39.501 7s-26 9.83398 -37 15.501s-20 10.834 -27 15.501l-10.5 7c10 7.33301 20.667 16.333 32 27
s22.166 23.334 32.499 38.001s19.666 31.667 27.999 51s15.166 41.333 20.499 66c15.333 -25.333 34.333 -46.666 57 -63.999l66 -49c21.333 -15.333 39.5 -31.666 54.5 -48.999s22.5 -39 22.5 -65c4 0 8.16699 5.33301 12.5 16s10.666 22.5 18.999 35.5s20 25 35 36
s35.5 16.5 61.5 16.5c18 0 27 2.66699 27 8c0 3.33301 -4.16699 6.66602 -12.5 9.99902s-18 8.5 -29 15.5s-21.667 16.5 -32 28.5s-17.5 28.333 -21.5 49c0 0.666992 -1.5 -2.83301 -4.5 -10.5s-8.16699 -16.5 -15.5 -26.5s-17 -19.167 -29 -27.5s-26.667 -12.5 -44 -12.5
c-15.333 0 -31.333 4 -48 12s-32.167 19.167 -46.5 33.5s-26.833 31.166 -37.5 50.499s-18 40.666 -22 63.999h57c14.667 0 28.834 6.83301 42.501 20.5s25.5 28.667 35.5 45s18 31.666 24 45.999s9 22.5 9 24.5c-7.33301 -11.333 -14.166 -20.5 -20.499 -27.5
s-15.166 -12.5 -26.499 -16.5s-26.5 -6.83301 -45.5 -8.5s-44.833 -2.83398 -77.5 -3.50098zM92.9951 31.001c-6 0 -13.166 0.999023 -21.499 2.99902s-16.166 4.66699 -23.499 8s-13.5 7.33301 -18.5 12s-7.5 10 -7.5 16c0 10.667 4.66699 18.834 14 24.501
s22.666 8.5 39.999 8.5c22.667 0 42.667 -4.66699 60 -14s31.333 -19.333 42 -30l-27.5 -16c-13.667 -8 -32.834 -12 -57.501 -12z" />
    <glyph glyph-name="Y" unicode="Y" horiz-adv-x="627" 
d="M423 80c-13.333 17.333 -29.666 32.167 -48.999 44.5s-38 22.5 -56 30.5s-33.333 13.833 -46 17.5l-19 5.5c12 8 24.667 15.5 38 22.5s25.5 14.167 36.5 21.5s20 15.666 27 24.999s10.5 20.333 10.5 33v264c0 3.33301 -5.16699 7.33301 -15.5 12s-21.833 11 -34.5 19
s-24.167 18.167 -34.5 30.5s-15.5 27.5 -15.5 45.5c0 12.667 2.16699 22.834 6.5 30.501s9 14 14 19s9.66699 8.66699 14 11s6.5 4.5 6.5 6.5c0 1.33301 -6.33301 0 -19 -4s-26.5 -11.333 -41.5 -22s-28.667 -24.5 -41 -41.5s-18.5 -37.5 -18.5 -61.5
c0 -14 2.16699 -25 6.5 -33s10 -14.333 17 -19s14.333 -8.33398 22 -11.001s15 -5.66699 22 -9s12.667 -7.66602 17 -12.999s6.5 -13 6.5 -23v-236c0 -17.333 -11.167 -36.666 -33.5 -57.999s-50.5 -42.333 -84.5 -63c-4.66699 -3.33301 -1.33398 -5.5 9.99902 -6.5
s28 -4.83301 50 -11.5s47.833 -17.834 77.5 -33.501s60.834 -39.834 93.501 -72.501c0 -0.666992 4.16699 2 12.5 8s17.166 13.167 26.499 21.5s17.833 16.333 25.5 24s11.167 12.5 10.5 14.5c-1.33301 4 -3.16602 5.5 -5.49902 4.5s-5.33301 -2.16699 -9 -3.5
s-7.83398 -1.66602 -12.501 -0.999023s-9.66699 4.66699 -15 12zM436 -95.999c-12 22.667 -29.6592 42.334 -52.9922 59.001s-48.333 30.167 -75 40.5s-53 18 -79 23s-47 7.5 -63 7.5c-23.333 0 -44.833 -3.83301 -64.5 -11.5s-37 -17.834 -52 -30.501
s-26.667 -26.667 -35 -42s-12.5 -30.666 -12.5 -45.999c0 -14.667 3.16699 -27.5 9.5 -38.5s13.166 -20 20.499 -27s14.166 -11.833 20.499 -14.5s9.5 -3 9.5 -1s-2.16699 4.66699 -6.5 8s-9 7.83301 -14 13.5s-9.5 12.167 -13.5 19.5s-6 16 -6 26
c0 8.66699 1.66699 18 5 28s8.16602 19.333 14.499 28s14.666 15.834 24.999 21.501s22.5 8.5 36.5 8.5c12 0 27.333 -2.16699 46 -6.5s38.167 -10.166 58.5 -17.499s40.833 -15.5 61.5 -24.5s39.334 -18.5 56.001 -28.5s30.167 -19.667 40.5 -29s15.5 -17.666 15.5 -24.999
c0 -1.33301 0.333008 -2 1 -2c3.33301 0 9.5 3 18.5 9s19.333 14.167 31 24.5s23.667 22 36 35s23.666 26.833 33.999 41.5s18.833 29.5 25.5 44.5s10 29.167 10 42.5v436l21.5 2.5c14.333 1.66699 30.166 5.5 47.499 11.5s33.166 15.167 47.499 27.5
s21.5 29.166 21.5 50.499c0 6 -1.33301 11.833 -4 17.5s-5.5 10.334 -8.5 14.001s-5.66699 6.16699 -8 7.5s-3.16602 0.666016 -2.49902 -2.00098c3.33301 -8 5.33301 -13.833 6 -17.5s1 -8.5 1 -14.5c0 -12.667 -3.83301 -21.5 -11.5 -26.5s-17.5 -7.66699 -29.5 -8
s-25.333 1 -40 4s-29 6.33301 -43 10l-38.5 10c-11.667 3 -20.5 4.5 -26.5 4.5c-15.333 0 -27.833 -2.66699 -37.5 -8s-17.334 -11.666 -23.001 -18.999s-9.5 -15.5 -11.5 -24.5s-3 -16.833 -3 -23.5s0.666992 -11.834 2 -15.501s2 -4.5 2 -2.5
c0 10.667 3.33301 17.667 10 21s14.667 5 24 5c2.66699 0 8 -1.33301 16 -4l25 -8.5l24 -8c7.33301 -2.33301 11.666 -3.5 12.999 -3.5c0 -14.667 -3 -26.334 -9 -35.001s-12.5 -16.334 -19.5 -23.001s-13.5 -13.667 -19.5 -21s-9 -17 -9 -29v-402
c0 -20.667 -1.83301 -34.834 -5.5 -42.501s-7.83398 -14.167 -12.501 -19.5zM94.0078 277.001c9.33301 -7.33301 20.168 -17.6699 32.501 -31.0029s22.166 -25 29.499 -35l15.5 19.5l17 20l16.5 18c5.33301 5.66699 10 9.83398 14 12.501c-3.33301 2 -8 5.5 -14 10.5
s-12.167 10.667 -18.5 17s-12.5 12.833 -18.5 19.5s-10.333 12.334 -13 17.001c-4 -6 -8.66699 -12.333 -14 -19s-10.833 -13.167 -16.5 -19.5s-11.167 -12.166 -16.5 -17.499s-10 -9.33301 -14 -12zM94.0098 420.997c9.33301 -7.33301 20.168 -17.6699 32.501 -31.0029
s22.166 -25 29.499 -35l15.5 19.5l17 20l16.5 18c5.33301 5.66699 10 9.83398 14 12.501c-3.33301 2 -8 5.5 -14 10.5s-12.167 10.667 -18.5 17s-12.5 12.833 -18.5 19.5s-10.333 12.334 -13 17.001c-4 -6 -8.66699 -12.333 -14 -19s-10.833 -13.167 -16.5 -19.5
s-11.167 -12.166 -16.5 -17.499s-10 -9.33301 -14 -12z" />
    <glyph glyph-name="Z" unicode="Z" horiz-adv-x="572" 
d="M325 243c-14 -16.667 -28.502 -32.1816 -43.502 -46.5146s-29.167 -27 -42.5 -38s-25.166 -20.167 -35.499 -27.5s-18.5 -12.333 -24.5 -15c-12 -5.33301 -27.833 -11.333 -47.5 -18l-57.5 -20c-18.667 -6.66699 -34.834 -12.834 -48.501 -18.501
s-20.5 -10.5 -20.5 -14.5l12.5 1.5l29.5 3.5c11.333 1.33301 23 2.5 35 3.5s22 1.5 30 1.5c39.333 0 74 -3.5 104 -10.5s55.167 -16.333 75.5 -28s35.666 -25.334 45.999 -41.001s15.5 -32.167 15.5 -49.5l5 11c3.33301 7.33301 7.66602 15.166 12.999 23.499
s11.333 16.166 18 23.499s13 11 19 11c12 0 27.167 3 45.5 9s36.333 14.833 54 26.5s32.667 26.167 45 43.5s18.5 37 18.5 59c0 18.667 -6 35.834 -18 51.501s-29.667 23.5 -53 23.5c-4.66699 0 -10 -0.666992 -16 -2s-11.667 -4 -17 -8s-9.83301 -9.33301 -13.5 -16
s-5.5 -15 -5.5 -25c0 -13.333 5 -24.166 15 -32.499s21.667 -12.5 35 -12.5c6 0 11 2.16699 15 6.5s6 8.83301 6 13.5s-1.83301 8.83398 -5.5 12.501s-7.16699 5.83398 -10.5 6.50098c-6 0.666992 -10.667 -0.833008 -14 -4.5s-5 -7.16699 -5 -10.5
c0 -1.33301 0.333008 -3.5 1 -6.5l1 -4.5c-5.33301 0 -11 2.83301 -17 8.5s-9 12.834 -9 21.501c0 12.667 3.83301 22.667 11.5 30s16.5 11 26.5 11c15.333 0 28.833 -5.33301 40.5 -16s17.5 -27 17.5 -49c0 -17.333 -5.33301 -33.166 -16 -47.499
s-23.5 -26.666 -38.5 -36.999s-30.167 -18.333 -45.5 -24s-28 -8.5 -38 -8.5c-1.33301 0 -5.5 5.33301 -12.5 16s-16.833 22.334 -29.5 35.001s-28.167 24.334 -46.5 35.001s-39.166 16 -62.499 16c-14 0 -27.667 -0.833008 -41 -2.5s-30.333 -5.16699 -51 -10.5
c8.66699 2.66699 19.334 7.66699 32.001 15s26.667 16.833 42 28.5s31.5 24.667 48.5 39s33.5 29.833 49.5 46.5l36 -20.5c10.667 -6.33301 21.667 -9.5 33 -9.5c0 6 3.66699 12.5 11 19.5s15.5 13.5 24.5 19.5s17.167 11 24.5 15l11 6c-15.333 0 -30.666 2.33301 -45.999 7
s-30.666 9.66699 -45.999 15c24.667 30 45 60 61 90s24 58.667 24 86c0 28 -6 51.5 -18 70.5s-27 34.667 -45 47s-37.667 21.833 -59 28.5s-41.166 11.5 -59.499 14.5s-33.833 4.83301 -46.5 5.5s-19.334 1 -20.001 1c-3.33301 0 -5.83301 1.83301 -7.5 5.5
s-3 7.66699 -4 12s-1.83301 8.33301 -2.5 12s-1.33398 5.5 -2.00098 5.5c-2 0 -5.33301 -3.83301 -10 -11.5s-10 -17.167 -16 -28.5l-19 -36.5l-19 -36.5c-1.33301 -3.33301 -7.33301 -7.66602 -18 -12.999s-22 -12.166 -34 -20.499s-23 -18 -33 -29s-15 -23.167 -15 -36.5
s4.33301 -24.166 13 -32.499s18.667 -12.5 30 -12.5c15.333 0 28.833 3.83301 40.5 11.5s17.5 19.167 17.5 34.5c0 8 -3 14.833 -9 20.5s-13 8.5 -21 8.5c-11.333 0 -20.166 -2.83301 -26.499 -8.5s-9.5 -11.834 -9.5 -18.501c0 -4 1.5 -7.66699 4.5 -11s6.83301 -5 11.5 -5
s8.66699 1.33301 12 4s5 5.66699 5 9c0 5.33301 -0.833008 8.16602 -2.5 8.49902s-2.5 1.83301 -2.5 4.5c0 0.666992 0.833008 1.83398 2.5 3.50098s4.5 2.5 8.5 2.5s7.5 -2 10.5 -6s4.5 -8 4.5 -12c0 -11.333 -4.16699 -19.666 -12.5 -24.999s-18.833 -8 -31.5 -8
c-11.333 0 -19.5 3.5 -24.5 10.5s-7.5 13.833 -7.5 20.5c0 10 4.5 20.167 13.5 30.5s20 19.5 33 27.5s26.333 14.667 40 20s25.167 8 34.5 8c7.33301 0 18.166 -0.5 32.499 -1.5s30 -3 47 -6s34.667 -6.83301 53 -11.5s34.833 -10.667 49.5 -18
s26.834 -16.166 36.501 -26.499s14.5 -22.166 14.5 -35.499c0 -23.333 -4.83301 -46.666 -14.5 -69.999s-22.5 -46.333 -38.5 -69c-14.667 6.66699 -28.5 12.334 -41.5 17.001s-24.5 7 -34.5 7c-12.667 0 -25.334 -3.66699 -38.001 -11s-24 -15.166 -34 -23.499
s-18.167 -16.166 -24.5 -23.499l-9.5 -11l11.5 4.5c7.66699 3 22.834 4.5 45.501 4.5c17.333 0 32.833 -1.66699 46.5 -5s26.167 -7.66602 37.5 -12.999z" />
    <glyph glyph-name="bracketleft" unicode="[" horiz-adv-x="306" 
d="M154 612c11.333 0 20.8311 4.16895 28.498 12.502s13.667 17.666 18 27.999s7.5 19.666 9.5 27.999l3 12.5h-155c-3.33301 0 -8.16602 -3.16699 -14.499 -9.5s-12.666 -13.666 -18.999 -21.999s-12 -17.166 -17 -26.499s-7.5 -17 -7.5 -23v-612h154
c11.333 0 20.666 4.16699 27.999 12.5s13.333 17.666 18 27.999s7.83398 19.666 9.50098 27.999l2.5 12.5h-117v531h59z" />
    <glyph glyph-name="backslash" unicode="\" horiz-adv-x="472" 
d="M430 0c0 1.33301 0.333008 6.66699 1 16s1.16699 21.5 1.5 36.5s-0.5 27.5 -2.5 37.5c-0.666992 1.33301 -8.33398 11.333 -23.001 30l-60 77l-82 106l-89 115l-82 105.5l-60 77l-23 29.5c0 -1.33301 -0.666992 -7 -2 -17s-2 -22.333 -2 -37s2 -26.667 6 -36
c0 -0.666992 7.66699 -11 23 -31l59.5 -77.5l81.5 -105.5l89 -114.5l81.5 -105l59.5 -76.5c14.667 -18.667 22.334 -28.667 23.001 -30z" />
    <glyph glyph-name="bracketright" unicode="]" horiz-adv-x="306" 
d="M152 81c-11.333 0 -20.833 -4.16895 -28.5 -12.502s-13.667 -17.666 -18 -27.999s-7.5 -19.666 -9.5 -27.999l-3 -12.5h154c3.33301 0 8.33301 3.16699 15 9.5s13.167 13.666 19.5 21.999s12 17.166 17 26.499s7.5 17 7.5 23v612h-154
c-11.333 0 -20.666 -4.16699 -27.999 -12.5s-13.333 -17.666 -18 -27.999s-7.83398 -19.666 -9.50098 -27.999l-2.5 -12.5h117v-531h-59z" />
    <glyph glyph-name="asciicircum" unicode="^" horiz-adv-x="531" 
d="M4 454c0 -4 4.33398 -4.33594 13.001 -1.00293s19.667 8.5 33 15.5s28 15.167 44 24.5l47 26.5c15.333 8.33301 29 15.333 41 21s20.333 8.5 25 8.5c10 0 24.5 -5.16699 43.5 -15.5s38 -21.666 57 -33.999l51.5 -34c15.333 -10.333 24.666 -15.5 27.999 -15.5
c1.33301 0 6.83301 4 16.5 12l31 26.5c11 9.66699 20.833 18.834 29.5 27.501s13 13.667 13 15c0 3.33301 -9 10.333 -27 21s-38.333 21.834 -61 33.501s-44 22 -64 31s-32.333 13.5 -37 13.5c-2.66699 0 -11.334 -4.16699 -26.001 -12.5l-53.5 -31l-67.5 -40.5l-66.5 -41.5
c-20.333 -13 -37.166 -24.167 -50.499 -33.5s-20 -15 -20 -17z" />
    <glyph glyph-name="underscore" unicode="_" horiz-adv-x="414" 
d="M99 -14l-99 -50h414l99 50h-414z" />
    <glyph glyph-name="grave" unicode="`" horiz-adv-x="274" 
d="M11 563c-1.33301 2.66699 -2.83398 1.99902 -4.50098 -2.00098s-3.16699 -9.33301 -4.5 -16s-2.33301 -13 -3 -19s-0.333984 -9.33301 0.999023 -10c0.666992 -0.666992 7.83398 -2 21.501 -4s30.667 -4.16699 51 -6.5s42.166 -5 65.499 -8s45 -5.66699 65 -8
s36.5 -4.16602 49.5 -5.49902s19.167 -2 18.5 -2l-18.5 4.5l-47 12l-61.5 17l-62 18.5c-19.333 6 -35.666 11.5 -48.999 16.5s-20.666 9.16699 -21.999 12.5z" />
    <glyph glyph-name="a" unicode="a" horiz-adv-x="343" 
d="M45 124c0 -14 3.33105 -28.333 9.99805 -43s14.167 -28 22.5 -40s16.333 -21.833 24 -29.5s12.5 -11.5 14.5 -11.5c2.66699 -0 7.83398 2.83301 15.501 8.5s15.5 12 23.5 19s15.5 14 22.5 21l13.5 13.5c3.33301 3.33301 6.5 8 9.5 14s5.66699 12 8 18l6 15.5
c1.66699 4.33301 3.5 6.5 5.5 6.5c0.666992 0 1.33398 -2.66699 2.00098 -8s1.83398 -12 3.50098 -20s4.33398 -16.333 8.00098 -25s8.5 -16.334 14.5 -23.001v-24c0 -1.33301 -1.83301 -4.66602 -5.5 -9.99902s-4.83398 -8 -3.50098 -8c2.66699 0 10.167 3.5 22.5 10.5
l39.5 23.5l38 24.5c11.333 7.66699 17 12.167 17 13.5s-2.33301 1.83301 -7 1.5s-8 -0.5 -10 -0.5c-6 0 -11.833 3.83301 -17.5 11.5s-11 17 -16 28s-9 23 -12 36s-4.5 24.833 -4.5 35.5v173c0 8 1.16699 15 3.5 21s4.66602 11.167 6.99902 15.5s4.66602 8 6.99902 11
s3.5 5.16699 3.5 6.5c0 2.66699 -1.66699 4.83398 -5 6.50098s-7.5 3.16699 -12.5 4.5s-10.167 3.33301 -15.5 6s-9.66602 6.33398 -12.999 11.001c-5.33301 8 -9.33301 16.167 -12 24.5s-6.66699 12.5 -12 12.5c-3.33301 0 -10.5 -3.5 -21.5 -10.5
s-21.167 -13.833 -30.5 -20.5c-5.33301 -4 -13.333 -8 -24 -12s-22.167 -8.66699 -34.5 -14s-24.5 -11.833 -36.5 -19.5s-22 -17.167 -30 -28.5c-4 -6 -7.33301 -14.833 -10 -26.5s-4.5 -24.334 -5.5 -38.001s-1.66699 -26.834 -2 -39.501s-0.5 -22.667 -0.5 -30v-111z
M206.998 161c0 -3.33301 -1.66602 -9.50391 -4.99902 -18.5039s-7.33301 -18.167 -12 -27.5s-9.16699 -17.666 -13.5 -24.999s-7.5 -11 -9.5 -11c-3.33301 0 -7.5 1.83301 -12.5 5.5s-9.83301 9.83398 -14.5 18.501s-8.66699 19.667 -12 33s-5 30 -5 50v147
c0 14 1.83301 26 5.5 36s8.16699 18.167 13.5 24.5s10.833 11 16.5 14s10.5 4.5 14.5 4.5c1.33301 0 5.16602 -2.33301 11.499 -7s11.833 -9.66699 16.5 -15c3.33301 -4 5.83301 -10.833 7.5 -20.5s2.5 -19.5 2.5 -29.5v-132c0 -9.33301 -0.333008 -17.166 -1 -23.499
s-1.66699 -14.166 -3 -23.499z" />
    <glyph glyph-name="b" unicode="b" horiz-adv-x="337" 
d="M146 563c0 36 5.83496 63.3281 17.502 81.9951s24.667 32.167 39 40.5s27.333 13 39 14l17.5 1.5c0 2.66699 -2.16699 4.66699 -6.5 6s-8.83301 2 -13.5 2c-0.666992 0 -5.33398 -0.666992 -14.001 -2s-19.334 -4.83301 -32.001 -10.5s-26.5 -14.167 -41.5 -25.5
s-28.667 -26.666 -41 -45.999s-22.666 -43.666 -30.999 -72.999s-12.5 -64.666 -12.5 -105.999c0 -5.33301 -1.5 -9.66602 -4.5 -12.999s-6.33301 -6 -10 -8s-7 -3.66699 -10 -5l-4.5 -2c0 -0.666992 1.5 -2.66699 4.5 -6s6.33301 -7.5 10 -12.5s7 -10.667 10 -17
s4.5 -12.5 4.5 -18.5v-227c0 -17.333 4.16699 -34.333 12.5 -51s18 -31.334 29 -44.001s22 -22.834 33 -30.501s19.167 -11.5 24.5 -11.5c1.33301 0 6 3.66699 14 11s17.5 17 28.5 29s22.667 25.5 35 40.5s23.833 30 34.5 45s19.5 29.5 26.5 43.5s10.5 26 10.5 36v94
c0 24 -2.5 45 -7.5 63s-11 33.5 -18 46.5s-14.167 24 -21.5 33l-18 22.5c-2 2.66699 -3.33301 6.33398 -4 11.001l-2 13.5c-0.666992 4.33301 -1.33398 8 -2.00098 11s-2 4.5 -4 4.5c-3.33301 0 -7 -2.83301 -11 -8.5s-8.33301 -12.5 -13 -20.5l-15 -25
c-5.33301 -8.66699 -11 -16.334 -17 -23.001c-2.66699 -3.33301 -6 -6.66602 -10 -9.99902s-8 -6.16602 -12 -8.49902s-7.33301 -4.16602 -10 -5.49902s-4 -1.33301 -4 0v160zM237.002 158.995c0 -2 -0.666992 -8.00195 -2 -18.002s-3.33301 -20.5 -6 -31.5
s-5.83398 -20.833 -9.50098 -29.5s-7.5 -13 -11.5 -13c-1.33301 0 -5.33301 2.66699 -12 8s-13.667 11.833 -21 19.5s-14 16 -20 25s-9 17.5 -9 25.5v246l4 5c2.66699 3.33301 10.334 5 23.001 5c10 0 19 -3.33301 27 -10s14.667 -14.667 20 -24s9.5 -19.166 12.5 -29.499
s4.5 -19.166 4.5 -26.499v-152z" />
    <glyph glyph-name="c" unicode="c" horiz-adv-x="274" 
d="M45 147c0 -25.333 4.66602 -47.168 13.999 -65.501s19.5 -33.5 30.5 -45.5s21.333 -21 31 -27s14.834 -9 15.501 -9c4 0 11.333 5.33301 22 16s21.667 22.334 33 35.001s21.166 24.334 29.499 35.001s11.833 16 10.5 16c-0.666992 -0.666992 -3.33398 -2.5 -8.00098 -5.5
s-10.167 -6.33301 -16.5 -10s-10.833 -5.5 -13.5 -5.5c-8 0 -16.167 2.83301 -24.5 8.5s-15.833 13.334 -22.5 23.001s-12.167 20.834 -16.5 33.501s-6.5 26 -6.5 40v220c0 5.33301 1.83301 10.333 5.5 15s7.16699 7 10.5 7c2 0 6 -2.33301 12 -7
s12.167 -9.83398 18.5 -15.501s12 -11 17 -16s7.5 -8.16699 7.5 -9.5v-11c0 -3.33301 1 -5 3 -5c1.33301 0 5.5 3.66699 12.5 11l23.5 24.5l25 25c8 7.66699 14 11.5 18 11.5l-16 5c-10.667 3.33301 -21 7.66602 -31 12.999
c-7.33301 3.33301 -13.666 7.16602 -18.999 11.499s-8.66602 6.5 -9.99902 6.5c-13.333 0 -28.833 -4.66699 -46.5 -14s-34.5 -20 -50.5 -32s-29.667 -24 -41 -36s-17 -20.333 -17 -25v-218z" />
    <glyph glyph-name="d" unicode="d" horiz-adv-x="319" 
d="M118 421c0 -3.33301 -3.83398 -7.99902 -11.501 -13.999s-16 -13.5 -25 -22.5s-17.333 -19 -25 -30s-11.5 -22.833 -11.5 -35.5v-179c0 -22 5.33301 -41.833 16 -59.5s22.667 -32.5 36 -44.5s25.666 -21.167 36.999 -27.5s18 -9.5 20 -9.5c1.33301 0 6 4 14 12
s17.333 19 28 33s22.167 30.667 34.5 50s23.666 40.166 33.999 62.499s19 45.833 26 70.5s10.5 49.334 10.5 74.001c0 32 -4.66699 58.333 -14 79s-20.833 37.667 -34.5 51s-28.5 24.333 -44.5 33s-30.833 17.167 -44.5 25.5s-25.167 17.333 -34.5 27s-14 22.5 -14 38.5
c0 5.33301 0.666992 9.33301 2 12l2 4c-1.33301 0 -5 -2.83301 -11 -8.5s-12.167 -12.5 -18.5 -20.5s-12.166 -16.167 -17.499 -24.5s-8 -14.833 -8 -19.5c0 -11.333 2.83301 -21.333 8.5 -30s11.834 -16.334 18.501 -23.001s12.834 -12 18.501 -16s8.5 -6.66699 8.5 -8z
M189.999 83.001l-10.5 4.49902c-7 3 -14.667 8.16699 -23 15.5s-16 17.333 -23 30s-10.5 29 -10.5 49v218c0 6.66699 5.83301 9.16699 17.5 7.5s24.667 -8.5 39 -20.5s27.333 -29.5 39 -52.5s17.5 -52.167 17.5 -87.5c0 -27.333 -1.83301 -51.166 -5.5 -71.499
s-8 -37.333 -13 -51s-10.167 -24 -15.5 -31s-9.33301 -10.5 -12 -10.5z" />
    <glyph glyph-name="e" unicode="e" horiz-adv-x="247" 
d="M45 186c0 -24.667 1.33301 -48.499 4 -71.499s8.66699 -41.167 18 -54.5c3.33301 -4.66699 8.16602 -10.334 14.499 -17.001s12.833 -13.167 19.5 -19.5s12.834 -11.833 18.501 -16.5s9.16699 -7 10.5 -7s6.33301 3.5 15 10.5l28 23c10 8.33301 19 16.166 27 23.499
s12 11.333 12 12c0 3.33301 -2.66699 3.83301 -8 1.5s-11.666 -3.5 -18.999 -3.5c-3.33301 0 -7.16602 1.5 -11.499 4.5s-8.33301 6.5 -12 10.5s-7 8 -10 12s-4.83301 7 -5.5 9c-1.33301 2.66699 -3.33301 8 -6 16s-5.33398 17 -8.00098 27s-4.83398 20.167 -6.50098 30.5
s-2.5 19.5 -2.5 27.5v27l16.5 12.5c11 8.33301 23.167 18.833 36.5 31.5s25.5 26.834 36.5 42.501s16.5 30.5 16.5 44.5c0 10.667 -2 22.5 -6 35.5s-8.66699 25.167 -14 36.5s-10.833 20.833 -16.5 28.5s-10.167 11.5 -13.5 11.5c-2.66699 0 -9.66699 -4 -21 -12
l-37.5 -27.5c-13.667 -10.333 -26.5 -20.5 -38.5 -30.5s-20 -17.333 -24 -22c-3.33301 -4 -5.83301 -10.167 -7.5 -18.5s-3 -16.833 -4 -25.5s-1.5 -16.667 -1.5 -24v-13v-115zM135 418.001c2.66699 0 5.83301 -2.5 9.5 -7.5s7.16699 -11.167 10.5 -18.5
s6.33301 -15.5 9 -24.5s4 -17.5 4 -25.5c0 -17.333 -3.83301 -33.5 -11.5 -48.5s-14.834 -26 -21.501 -33s-10.667 -10.833 -12 -11.5v153c0 4 1.33301 7.66699 4 11s5.33398 5 8.00098 5z" />
    <glyph glyph-name="f" unicode="f" horiz-adv-x="225" 
d="M67 420l-0.000976562 -110.002c0 -2.66699 0.666992 -12.167 2 -28.5s3.16602 -36 5.49902 -59l7.5 -73.5c2.66699 -26 5.5 -50 8.5 -72s5.66699 -40.333 8 -55s4.5 -22 6.5 -22c1.33301 0 4.16602 4.83301 8.49902 14.5s8.83301 22.667 13.5 39s9.33398 35 14.001 56
s8.5 43 11.5 66s4.83301 46.167 5.5 69.5s-0.666016 45 -3.99902 65l-18 110h12c0.666992 0 3.33398 -0.666992 8.00098 -2s9.83398 -3.16602 15.501 -5.49902s8.5 -4.83301 8.5 -7.5c1.33301 2 4.33301 5.83301 9 11.5s9.5 12 14.5 19s9.5 13.833 13.5 20.5
s6 11.334 6 14.001c0 1.33301 -1 2 -3 2h-94c-2.66699 14 -5.5 30.333 -8.5 49s-4.5 33.667 -4.5 45c0 19.333 6.5 31.333 19.5 36s26.833 7 41.5 7c8.66699 0 16 -3.33301 22 -10s10.833 -13.834 14.5 -21.501s6.33398 -14.834 8.00098 -21.501s3.16699 -10 4.5 -10
c0.666992 0 2 1.83301 4 5.5l6.5 12l7.5 13.5c2.66699 4.66699 5.33398 8 8.00098 10c5.33301 4 11.833 8.33301 19.5 13s14 8.33398 19 11.001s7.83301 4.33398 8.5 5.00098l-10 4c-6.66699 2.66699 -14.334 7.33398 -23.001 14.001
c-12.667 9.33301 -21.334 18.666 -26.001 27.999l-7 14l-9 -7.5c-6 -5 -13.5 -10.667 -22.5 -17s-18.333 -12 -28 -17s-17.834 -7.5 -24.501 -7.5c-16 0 -29.167 -5.33301 -39.5 -16s-18.333 -24 -24 -40s-9.66699 -33.5 -12 -52.5s-3.5 -37.167 -3.5 -54.5
c-6.66699 -5.33301 -14 -12 -22 -20s-12 -16 -12 -24h34z" />
    <glyph glyph-name="g" unicode="g" horiz-adv-x="357" 
d="M45 121c0 -18 2.49414 -33.665 7.49414 -46.998s11 -24.5 18 -33.5s14.5 -15.667 22.5 -20s15 -6.5 21 -6.5c2 0 3 -2 3 -6v-11v-10c0 -3.33301 0.666992 -4.33301 2 -3l106 89v-65c0 -13.333 0.166992 -27.5 0.5 -42.5s-1.66699 -29 -6 -42s-12.166 -23.667 -23.499 -32
s-28.666 -12.5 -51.999 -12.5s-40.833 4.66699 -52.5 14s-20 19.666 -25 30.999s-8 21.666 -9 30.999s-2.83301 14 -5.5 14c-1.33301 0 -2 -5.66699 -2 -17s2.83301 -23.833 8.5 -37.5s15.5 -26.167 29.5 -37.5s35 -17 63 -17c27.333 0 50.5 5.5 69.5 16.5
s34.333 24.667 46 41s20.167 34 25.5 53s8 36.167 8 51.5c0 6 3.16699 11.667 9.5 17s12.333 9.33301 18 12s8.83398 4.33398 9.50098 5.00098c-0.666992 0.666992 -3.5 3 -8.5 7s-10.5 9.16699 -16.5 15.5s-9 11.5 -9 15.5v271c0 12 1.83301 21 5.5 27s7.5 10.5 11.5 13.5
s7.83301 5.33301 11.5 7s5.5 4.16699 5.5 7.5c0 2 -1.5 3.66699 -4.5 5s-6.5 2.33301 -10.5 3s-8.33301 1.66699 -13 3s-8.66699 3 -12 5c-8.66699 6 -14.5 11.333 -17.5 16s-5 8.5 -6 11.5s-1.66699 5.33301 -2 7s-1.83301 2.5 -4.5 2.5
c-1.33301 0 -5.83301 -1.33301 -13.5 -4s-17.167 -6.16699 -28.5 -10.5s-23.666 -9.33301 -36.999 -15l-38.5 -16c-12.333 -5 -23.166 -9.83301 -32.499 -14.5s-15.666 -8.33398 -18.999 -11.001c-15.333 -12 -28 -24 -38 -36s-15 -27.667 -15 -47v-198zM176.994 62.002
c-1.33301 0 -5 1.3291 -11 3.99609s-12.167 6.33398 -18.5 11.001s-12 10.334 -17 17.001s-7.5 13.667 -7.5 21v249c0 8 2 15.667 6 23s9 13.5 15 18.5s12.167 9 18.5 12s11.833 4.5 16.5 4.5c6.66699 0 12.834 -1.33301 18.501 -4s10.5 -5.66699 14.5 -9
s7.16699 -6.66602 9.5 -9.99902s3.5 -5.66602 3.5 -6.99902v-285c0 -3.33301 -2 -7.5 -6 -12.5s-8.5 -10 -13.5 -15s-10.333 -9.16699 -16 -12.5s-9.83398 -5 -12.501 -5z" />
    <glyph glyph-name="h" unicode="h" horiz-adv-x="369" 
d="M328 55c0 2.66699 -2.16602 5.16406 -6.49902 7.49707s-6.5 6.16602 -6.5 11.499v272c0 21.333 -2.33301 39.5 -7 54.5s-10 27.167 -16 36.5s-11.833 16 -17.5 20s-9.5 6 -11.5 6c-1.33301 0 -2 1.33301 -2 4v11c0 4 -0.166992 7.5 -0.5 10.5s-1.5 4.5 -3.5 4.5
c-1.33301 0 -4.33301 -2 -9 -6s-8.66699 -7.66699 -12 -11l-6 -6l-84 -85v178c0 34 5.5 60.333 16.5 79s23 32.167 36 40.5s25 13.166 36 14.499l16.5 2c0 4.66699 -1.83301 7.33398 -5.5 8.00098s-6.16699 1 -7.5 1c-18 0 -37 -5.66699 -57 -17s-38.5 -28 -55.5 -50
s-31 -49.333 -42 -82s-16.5 -70.334 -16.5 -113.001c0 -5.33301 -1.5 -9.66602 -4.5 -12.999s-6.33301 -6.16602 -10 -8.49902s-7 -4 -10 -5l-4.5 -1.5c0 -0.666992 1.5 -2.66699 4.5 -6s6.33301 -7.5 10 -12.5s7 -10.667 10 -17s4.5 -12.5 4.5 -18.5v-287
c0 -5.33301 -2 -9 -6 -11s-6 -4 -6 -6c0 -0.666992 3 -4.33398 9 -11.001s13 -13.667 21 -21s15.833 -14.166 23.5 -20.499s13.167 -9.5 16.5 -9.5c1.33301 0 4.83301 4.33301 10.5 13s11.167 15.667 16.5 21c3.33301 4 7.83301 8 13.5 12s8.5 7.66699 8.5 11
c0 0.666992 -1.5 1.83398 -4.5 3.50098s-6.16699 3.83398 -9.5 6.50098s-6.5 6.33398 -9.5 11.001s-4.5 10.667 -4.5 18v271l38 38l5 6c3.33301 4 6.33301 6 9 6c7.33301 0 13.5 -4 18.5 -12s9 -17.5 12 -28.5s5.16699 -22.5 6.5 -34.5s2 -21.667 2 -29v-220
c0 -32.667 -4 -59.167 -12 -79.5s-16.667 -36.5 -26 -48.5s-18 -20.5 -26 -25.5s-12 -8.16699 -12 -9.5c12.667 0 27.667 6.66699 45 20s34.166 27.833 50.499 43.5l44.5 43.5c13.333 13.333 22.333 20 27 20z" />
    <glyph glyph-name="i" unicode="i" 
d="M67 122c0 -12 1 -23.499 3 -34.499s4 -21 6 -30s4 -16.5 6 -22.5s3 -10.333 3 -13c0 -7.33301 -1.16699 -12.833 -3.5 -16.5s-1.83301 -5.5 1.5 -5.5s11.166 3.5 23.499 10.5l39 23c13.667 8.33301 25.834 16.166 36.501 23.499s16 11.333 16 12
c0 2.66699 -4 3.66699 -12 3s-14 0 -18 2c-2.66699 0.666992 -5.33398 3.16699 -8.00098 7.5s-5 9.83301 -7 16.5s-3.66699 13.667 -5 21s-2 14.666 -2 21.999v253c0 4.66699 2.16699 8.5 6.5 11.5s6.5 5.5 6.5 7.5c0 1.33301 -3.33301 5.16602 -10 11.499l-22 20.5
c-8 7.33301 -15.833 13.833 -23.5 19.5s-12.5 8.5 -14.5 8.5c-2.66699 0 -5.83398 -3.16699 -9.50098 -9.5s-7.5 -11.833 -11.5 -16.5l-18 -18c-6.66699 -6.66699 -10 -10.667 -10 -12s1.33301 -2.66602 4 -3.99902s5.83398 -3.5 9.50098 -6.5s6.83398 -6.66699 9.50098 -11
s4 -10.166 4 -17.499v-256zM39 565.001c4.66699 0 10.002 -2.67188 16.002 -8.00488s11.833 -11.166 17.5 -17.499s10.667 -12.166 15 -17.499s7.16602 -8 8.49902 -8c2.66699 0 6.5 2 11.5 6l16.5 13.5c6 5 12.167 9.5 18.5 13.5s11.833 6 16.5 6
c0.666992 0 -1.33301 3.33301 -6 10s-10.334 13.834 -17.001 21.501l-19.5 21.5c-6.33301 6.66699 -10.833 10 -13.5 10c-7.33301 0 -15 -2.66699 -23 -8s-15.167 -11.166 -21.5 -17.499s-11.5 -12.166 -15.5 -17.499s-5.33301 -8 -4 -8z" />
    <glyph glyph-name="j" unicode="j" 
d="M67 377l-0.00292969 -411.999c0 -24.667 -2.66699 -45 -8 -61s-11.833 -28.833 -19.5 -38.5s-16 -16.834 -25 -21.501s-17.333 -8.16699 -25 -10.5s-14.167 -3.66602 -19.5 -3.99902s-8 -1.5 -8 -3.5c0 -3.33301 1.33301 -5.16602 4 -5.49902s6.66699 -0.5 12 -0.5
c20 0 40 7.16699 60 21.5s37.833 32 53.5 53s28.5 43.5 38.5 67.5s15 45.667 15 65c0 4.66699 1.66699 8.5 5 11.5s7 5.5 11 7.5s7.66699 3.66699 11 5s5 2.66602 5 3.99902c0 2 -1.66699 4.33301 -5 7s-6.83301 6 -10.5 10s-7.16699 8.5 -10.5 13.5s-5 10.833 -5 17.5v291
c0 5.33301 2 9.16602 6 11.499s6 4.16602 6 5.49902c0 0.666992 -2.83301 4.33398 -8.5 11.001s-12.5 13.667 -20.5 21s-16 14 -24 20s-14.333 9 -19 9c-1.33301 0 -4.5 -4 -9.5 -12s-10.167 -15 -15.5 -21c-3.33301 -4 -7.66602 -8 -12.999 -12s-8 -7.33301 -8 -10
c0 -1.33301 1.33301 -2.66602 4 -3.99902s5.83398 -3.33301 9.50098 -6s6.83398 -6.33398 9.50098 -11.001s4 -11 4 -19zM38.9971 565.001c4.66699 0 10.002 -2.67188 16.002 -8.00488s11.833 -11.166 17.5 -17.499s10.667 -12.166 15 -17.499s7.16602 -8 8.49902 -8
c2.66699 0 6.5 2 11.5 6l16.5 13.5c6 5 12 9.5 18 13.5s11.667 6 17 6c0.666992 0 -1.33301 3.33301 -6 10s-10.334 13.834 -17.001 21.501l-19.5 21.5c-6.33301 6.66699 -10.833 10 -13.5 10c-7.33301 0 -15 -2.66699 -23 -8s-15.167 -11.166 -21.5 -17.499
s-11.5 -12.166 -15.5 -17.499s-5.33301 -8 -4 -8z" />
    <glyph glyph-name="k" unicode="k" horiz-adv-x="310" 
d="M146 198c0 1.33301 1.66602 1.83105 4.99902 1.49805s7 -1.16602 11 -2.49902s8 -3.16602 12 -5.49902s6.66699 -4.5 8 -6.5c2.66699 -4 5.16699 -8.66699 7.5 -14l3.5 -8l42 -131c3.33301 -9.33301 7 -17.166 11 -23.499s7.33301 -9.16602 10 -8.49902
c4.66699 0.666992 11.5 4 20.5 10s18.167 12.667 27.5 20s17.5 14.333 24.5 21s10.5 11 10.5 13c0 1.33301 -2.16699 0.666016 -6.5 -2.00098s-9.16602 -4 -14.499 -4s-9.83301 1.66699 -13.5 5s-6.16699 6.66602 -7.5 9.99902l-51 150c-5.33301 16.667 -12.5 27 -21.5 31
s-16.5 6.66699 -22.5 8c-6 0.666992 -13.5 2 -22.5 4l-23 5c-6.33301 1.33301 -9.83301 2 -10.5 2l18.5 11.5c12.333 7.66699 26 17.167 41 28.5s28.667 23.166 41 35.499s18.5 23.166 18.5 32.499c0 13.333 -1.33301 25.833 -4 37.5s-5.83398 21.834 -9.50098 30.501
s-7.33398 15.5 -11.001 20.5s-6.16699 7.5 -7.5 7.5s-3.83301 -1.16699 -7.5 -3.5l-5.5 -3.5l-74 -75v168c0 3.33301 0.666992 12.333 2 27s5.16602 30 11.499 46s16.333 30.333 30 43s32.834 19 57.501 19c4.66699 0 5.83398 1.66699 3.50098 5s-6.5 5 -12.5 5
c-20 0 -40.167 -6.16699 -60.5 -18.5s-38.666 -29.833 -54.999 -52.5s-29.666 -50.167 -39.999 -82.5s-15.5 -68.5 -15.5 -108.5c0 -5.33301 -1.5 -9.66602 -4.5 -12.999s-6.33301 -6 -10 -8s-7 -3.66699 -10 -5l-4.5 -2c0 -0.666992 1.5 -2.66699 4.5 -6
s6.33301 -7.5 10 -12.5s7 -10.667 10 -17s4.5 -12.5 4.5 -18.5v-287c0 -5.33301 -2 -9 -6 -11s-6 -3.66699 -6 -5c0 -2 3.16699 -6.33301 9.5 -13s13.666 -13.667 21.999 -21l23.5 -20c7.33301 -6 12 -9 14 -9c3.33301 0 7.5 4.33301 12.5 13s10.167 15.667 15.5 21
c3.33301 4 7.83301 8.16699 13.5 12.5s8.5 7.83301 8.5 10.5c0 1.33301 -1.5 2.66602 -4.5 3.99902s-6.16699 3.33301 -9.5 6s-6.5 6.33398 -9.5 11.001s-4.5 10.667 -4.5 18v104zM193.999 354.998c0 -11.333 -4.16699 -22.833 -12.5 -34.5s-16 -20.667 -23 -27
s-11.167 -9.83301 -12.5 -10.5v94l21 22l2.5 2.5c1.66699 1.66699 3.5 2.5 5.5 2.5c5.33301 0 9.83301 -5.16699 13.5 -15.5s5.5 -21.5 5.5 -33.5z" />
    <glyph glyph-name="l" unicode="l" 
d="M146 94v468.995c0 3.33301 0.666992 12.333 2 27s5.16602 30 11.499 46s16.333 30.333 30 43s32.834 19 57.501 19c3.33301 0 4.5 1.66699 3.5 5s-5.16699 5 -12.5 5c-19.333 0 -39.166 -5.83301 -59.499 -17.5s-38.666 -28.667 -54.999 -51s-29.833 -49.833 -40.5 -82.5
s-16 -69.667 -16 -111c0 -5.33301 -1.5 -9.66602 -4.5 -12.999s-6.33301 -6 -10 -8s-7 -3.66699 -10 -5l-4.5 -2c0 -0.666992 1.5 -2.66699 4.5 -6s6.33301 -7.5 10 -12.5s7 -10.667 10 -17s4.5 -12.5 4.5 -18.5v-287c0 -5.33301 -2 -9.16602 -6 -11.499
s-6 -4.16602 -6 -5.49902s3 -5.33301 9 -12s13 -13.667 21 -21s15.833 -14 23.5 -20s13.167 -9 16.5 -9c1.33301 0 5.16602 3.66699 11.499 11l20 24l19 24.5c5.66699 7.66699 8.5 11.834 8.5 12.501c0 2 -2.33301 1 -7 -3s-8.33398 -6 -11.001 -6
c-1.33301 0 -5 3.33301 -11 10s-9 14.334 -9 23.001z" />
    <glyph glyph-name="m" unicode="m" horiz-adv-x="515" 
d="M67 352l-0.00488281 -278.993c0 -5.33301 -2.5 -10.333 -7.5 -15s-7.5 -7.66699 -7.5 -9s3.33301 -4.5 10 -9.5l21.5 -16l21.5 -16c6.66699 -5 10 -8.16699 10 -9.5l7 8.5c4.66699 5.66699 10 11.834 16 18.501l17 18.5c5.33301 5.66699 9 8.5 11 8.5l-5.5 11.5
c-3 6.33301 -6.16699 14.166 -9.5 23.499s-5 16.333 -5 21v267c0 4 1.5 8 4.5 12s6.5 7.66699 10.5 11s7.83301 6 11.5 8s6.16699 3 7.5 3c4 0 8.5 -3.16699 13.5 -9.5s9.83301 -14.5 14.5 -24.5s8.66699 -21 12 -33s5 -23.333 5 -34v-207c0 -16.667 -3 -31 -9 -43l-9 -18
c2 0 6 -2.16699 12 -6.5l19 -14l18 -13.5c5.33301 -4 8.33301 -6 9 -6s4.16699 2.5 10.5 7.5l20.5 16.5c7.33301 6 13.833 11.667 19.5 17s8.5 8.66602 8.5 9.99902c0 3.33301 -1.16699 6 -3.5 8s-4.66602 4.66699 -6.99902 8s-4.66602 8 -6.99902 14s-3.5 15 -3.5 27v281
c0 2.66699 1.5 5.16699 4.5 7.5s6.5 4.5 10.5 6.5s7.83301 3.5 11.5 4.5s6.16699 1.5 7.5 1.5c2 0 5.5 -1.33301 10.5 -4s10 -6.33398 15 -11.001s9.5 -9.66699 13.5 -15s6 -10.333 6 -15v-261c0 -11.333 2.83301 -23.333 8.5 -36s11.834 -24.167 18.501 -34.5
s13 -18.833 19 -25.5s9.33301 -10 10 -10c2 0 6.83301 3.66699 14.5 11s15.334 15.166 23.001 23.499s14.167 16.166 19.5 23.499s7 11 5 11c-0.666992 0 -2.16699 -1.33301 -4.5 -4s-4.5 -4 -6.5 -4c-4 0 -7.83301 2.33301 -11.5 7s-6.66699 10 -9 16
s-4.16602 11.667 -5.49902 17s-2 8.66602 -2 9.99902v292c0 4.66699 3.33301 7.5 10 8.5s10 2.16699 10 3.5c0 4 -4.5 7.66699 -13.5 11s-16.5 7.66602 -22.5 12.999c-4 2.66699 -7.66699 6.33398 -11 11.001s-6.5 9.33398 -9.5 14.001l-8 12
c-2.33301 3.33301 -3.83301 5 -4.5 5l-1.5 -0.5c-1 -0.333008 -1.5 -0.833008 -1.5 -1.5c0 -2 -6 -7 -18 -15s-25.167 -16.333 -39.5 -25l-39.5 -23.5l-18 -10.5c0 2.66699 -2.33301 7.16699 -7 13.5l-15 20l-15 19c-4.66699 5.66699 -7 9.16699 -7 10.5
c0 3.33301 1.5 6.16602 4.5 8.49902s4.5 4.16602 4.5 5.49902c0 0.666992 -0.5 1.16699 -1.5 1.5l-1.5 0.5c-6.66699 0 -16.5 -4.5 -29.5 -13.5s-25.833 -18.833 -38.5 -29.5s-23.834 -20.5 -33.501 -29.5l-14.5 -13.5c0 8 -1.83301 15.5 -5.5 22.5s-7.66699 13.333 -12 19
s-8.33301 10.5 -12 14.5s-5.5 7 -5.5 9c0 4 2 7.16699 6 9.5s6 4.16602 6 5.49902c0 2 -1.66699 3 -5 3c-2 0 -4 -0.5 -6 -1.5s-5.66699 -4.16699 -11 -9.5l-65 -66c0.666992 -0.666992 3.83398 -2.66699 9.50098 -6s11.667 -8.83301 18 -16.5s9.5 -16.5 9.5 -26.5z" />
    <glyph glyph-name="n" unicode="n" horiz-adv-x="357" 
d="M252 476c0 -3.33301 -5.82715 -9.33496 -17.4941 -18.002s-24.5 -17.667 -38.5 -27l-38.5 -25l-17.5 -11c0 8 -1.83301 15.5 -5.5 22.5s-7.66699 13.333 -12 19s-8.33301 10.5 -12 14.5s-5.5 7 -5.5 9c0 4 2 7.16699 6 9.5s6 4.16602 6 5.49902c0 2 -1.66699 3 -5 3
c-2 0 -4 -0.5 -6 -1.5s-5.66699 -4.16699 -11 -9.5l-65 -66c0.666992 -0.666992 3.83398 -2.66699 9.50098 -6s11.667 -8.83301 18 -16.5s9.5 -16.5 9.5 -26.5v-279c0 -5.33301 -2.5 -10.333 -7.5 -15s-7.5 -7.66699 -7.5 -9s3.16699 -4.33301 9.5 -9l21.5 -15.5
c8 -5.66699 15.167 -11 21.5 -16s9.5 -8.16699 9.5 -9.5h2c1.33301 0 4.16602 2.66699 8.49902 8l14.5 18c5.33301 6.66699 10.5 12.667 15.5 18s8.5 8 10.5 8c0.666992 0 1 1 1 3c0 0.666992 -1 3.16699 -3 7.5l-7 14.5c-2.66699 5.33301 -5 11 -7 17s-3 11 -3 15v267
c0 4 2 7.83301 6 11.5s8.5 7 13.5 10s9.66699 5.33301 14 7s7.16602 2.5 8.49902 2.5s4 -1.33301 8 -4s8.16699 -6 12.5 -10s8.16602 -8.5 11.499 -13.5s5 -9.83301 5 -14.5v-261c0 -11.333 2.66699 -23.333 8 -36s11.5 -24.167 18.5 -34.5s13.333 -18.833 19 -25.5
s9.16699 -10 10.5 -10c2 0 6.66699 3.5 14 10.5l23 23c8 8.33301 14.833 16 20.5 23s7.83398 10.5 6.50098 10.5c-2 0 -3.83301 -1 -5.5 -3s-3.83398 -3 -6.50098 -3c-4.66699 0 -8.83398 2.33301 -12.501 7s-6.83398 10 -9.50098 16s-4.66699 11.667 -6 17
s-2 8.66602 -2 9.99902v292c0 2 1.16699 3.66699 3.5 5s4.66602 2.33301 6.99902 3l7 2c2.33301 0.666992 3.5 1.33398 3.5 2.00098c0 4.66699 -4.5 8.5 -13.5 11.5s-16.833 7.16699 -23.5 12.5c-3.33301 2.66699 -6.83301 6.33398 -10.5 11.001s-7 9.33398 -10 14.001
s-5.83301 8.83398 -8.5 12.501s-4.33398 5.5 -5.00098 5.5s-1 -1 -1 -3z" />
    <glyph glyph-name="o" unicode="o" horiz-adv-x="324" 
d="M45 140c0 -20 4.3291 -37.835 12.9961 -53.502s18.5 -28.667 29.5 -39s21.333 -18.333 31 -24s15.5 -8.5 17.5 -8.5c2.66699 0 3.5 -1.16699 2.5 -3.5s-1.5 -4.83301 -1.5 -7.5c0 -4 2.66699 -6 8 -6s16.5 7.33301 33.5 22s34.5 33.5 52.5 56.5s34.167 48.333 48.5 76
s21.5 54.167 21.5 79.5v87c0 18 -4 35.5 -12 52.5s-17 32 -27 45s-19.667 23.5 -29 31.5s-15.666 12 -18.999 12c-1.33301 0 -2 1.33301 -2 4c0 3.33301 0.333008 6.5 1 9.5s-0.666016 4.5 -3.99902 4.5c-1.33301 0 -6.16602 -1.5 -14.499 -4.5
s-18.666 -7.33301 -30.999 -13s-25.333 -12.667 -39 -21s-26.5 -17.666 -38.5 -27.999s-21.833 -21.666 -29.5 -33.999s-11.5 -25.5 -11.5 -39.5v-198zM122.996 406.998c0 4 1.33398 7.66504 4.00098 10.998s6.66699 5 12 5c6.66699 0 14.667 -3.33301 24 -10
s18.5 -15.167 27.5 -25.5s16.667 -21.666 23 -33.999s9.5 -23.833 9.5 -34.5v-162c0 -27.333 -3.33301 -49.166 -10 -65.499s-12.667 -24.5 -18 -24.5s-12 3 -20 9s-15.833 13.5 -23.5 22.5s-14.334 18.667 -20.001 29s-8.5 19.5 -8.5 27.5v252z" />
    <glyph glyph-name="p" unicode="p" horiz-adv-x="312" 
d="M22 416c2.66699 0 6.49805 -1 11.498 -3s10 -5 15 -9s9.33301 -9 13 -15s5.5 -13 5.5 -21v-295c0 -2 -1.5 -4.33301 -4.5 -7s-6.16699 -5.16699 -9.5 -7.5l-9.5 -6.5c-3 -2 -4.5 -3.33301 -4.5 -4c0 -2 1.5 -3.83301 4.5 -5.5s6.16699 -3.33398 9.5 -5.00098
s6.5 -3.66699 9.5 -6s4.5 -5.5 4.5 -9.5v-156c0 -4.66699 1.83301 -9.66699 5.5 -15s8 -10.333 13 -15s10 -8.5 15 -11.5s8.5 -4.5 10.5 -4.5c4.66699 0 11.334 3.33301 20.001 10s17.5 14 26.5 22s16.833 15.667 23.5 23s10 12 10 14c0 2.66699 -2 2.83398 -6 0.500977
s-7.66699 -3.5 -11 -3.5c-10.667 0 -18 5 -22 15s-6 20.333 -6 31v84c0 8 7.66699 18.667 23 32s32.333 30.333 51 51s35.667 45.667 51 75s23 64 23 104c0 26 -3.33301 48.667 -10 68s-14.167 35.666 -22.5 48.999s-15.833 24.333 -22.5 33s-10 15.334 -10 20.001
c0 0.666992 -0.166992 2.66699 -0.5 6s-0.833008 7 -1.5 11s-1.66699 7.5 -3 10.5s-2.66602 4.5 -3.99902 4.5s-5.83301 -4 -13.5 -12l-26 -26l-28 -26c-9 -8 -14.833 -12 -17.5 -12c0 4.66699 -1.33301 9.66699 -4 15s-5.5 10.333 -8.5 15s-6 8.5 -9 11.5
s-5.16699 4.5 -6.5 4.5s-2.16602 2 -2.49902 6s-0.833008 8.5 -1.5 13.5s-1.33398 9.66699 -2.00098 14s-1.33398 6.5 -2.00098 6.5c-1.33301 0 -6.16602 -3.83301 -14.499 -11.5l-26.5 -25.5l-25.5 -25.5c-7.66699 -7.66699 -11.167 -11.5 -10.5 -11.5zM166.998 64
c-5.33301 0 -10.166 1.49902 -14.499 4.49902s-6.5 6.16699 -6.5 9.5v289c0 11.333 1 20.833 3 28.5s6.33301 11.5 13 11.5c3.33301 0 8.66602 -5 15.999 -15s14.5 -22.667 21.5 -38s13.167 -32.5 18.5 -51.5s8 -37.5 8 -55.5c0 -19.333 -3 -39.666 -9 -60.999
s-12.667 -41 -20 -59s-14 -33 -20 -45s-9.33301 -18 -10 -18z" />
    <glyph glyph-name="q" unicode="q" horiz-adv-x="350" 
d="M45 119c0 -13.333 3.33105 -25.832 9.99805 -37.499s13.834 -22.5 21.501 -32.5s14.834 -18.5 21.501 -25.5s10 -12.5 10 -16.5c0 -3.33301 0.5 -7.5 1.5 -12.5s2.16699 -7.5 3.5 -7.5c2.66699 0 9.33398 5.33301 20.001 16s22 23.834 34 39.501s23 32 33 49
s16 31.833 18 44.5v-270c0 -4 1.83301 -8.66699 5.5 -14s8 -10.333 13 -15s9.83301 -8.66699 14.5 -12s8 -5 10 -5c5.33301 0 12.5 3.5 21.5 10.5s18 14.667 27 23s16.667 16.166 23 23.499s9.5 11.333 9.5 12c0 2.66699 -2.5 3 -7.5 1s-9.16699 -3 -12.5 -3
c-10 0 -16.833 5 -20.5 15s-5.5 20 -5.5 30v453c0 8 1.5 15.5 4.5 22.5s4.5 12.167 4.5 15.5s-2.5 6.16602 -7.5 8.49902s-9.16699 3.5 -12.5 3.5s-7 2 -11 6l-12.5 12.5l-12.5 12.5c-4 4 -7.66699 6 -11 6c-2.66699 0 -10.667 -2.33301 -24 -7s-28.333 -10.334 -45 -17.001
l-50 -19.5c-16.667 -6.33301 -29.334 -11.5 -38.001 -15.5c-2.66699 -1.33301 -6 -4 -10 -8s-8 -9 -12 -15s-7.33301 -12.667 -10 -20s-4 -14.666 -4 -21.999v-229zM122.998 385.001c0 6.66699 5.16895 15.001 15.502 25.001s22.166 15 35.499 15c4 0 8.5 -2.5 13.5 -7.5
s9.83301 -11.167 14.5 -18.5s8.5 -15.833 11.5 -25.5s4.5 -18.834 4.5 -27.501v-116c0 -18 -2 -36.333 -6 -55s-8.83301 -35.5 -14.5 -50.5s-11.167 -27.333 -16.5 -37s-9.33301 -14.5 -12 -14.5c-1.33301 0 -4.33301 1.66699 -9 5s-9.83398 8.33301 -15.501 15
s-10.667 14.5 -15 23.5s-6.5 19.167 -6.5 30.5v238z" />
    <glyph glyph-name="r" unicode="r" horiz-adv-x="306" 
d="M67 80c0 -2 -0.833984 -4.16895 -2.50098 -6.50195s-3.5 -4.5 -5.5 -6.5l-5 -5c-1.33301 -1.33301 -1.66602 -2 -0.999023 -2c2 0 6.5 -3.16699 13.5 -9.5l23 -20.5l23 -20.5c7 -6.33301 11.167 -9.5 12.5 -9.5c0.666992 0 3.16699 2.83301 7.5 8.5l15 19
c5.66699 7 11.167 13.333 16.5 19s9 8.5 11 8.5c0.666992 0 -0.333008 1.66699 -3 5l-10 12c-4 4.66699 -7.66699 9.33398 -11 14.001s-5 8.33398 -5 11.001v240c0 5.33301 1.83301 10.166 5.5 14.499l5.5 6.5l39 40l3 2.5c2 1.66699 3.33301 2.5 4 2.5
c4 0 8 -2.66699 12 -8s7.66699 -11 11 -17s6.33301 -11.667 9 -17s4.66699 -8 6 -8l10 10l22 23l22 23.5c6.66699 7 10 11.167 10 12.5s-2.66699 4.16602 -8 8.49902l-18 15c-6.66699 5.66699 -12.667 11 -18 16s-8 9.16699 -8 12.5l-107 -107c0 10 -1.33301 20.333 -4 31
s-6.16699 20.5 -10.5 29.5s-8.83301 16.333 -13.5 22s-9 8.5 -13 8.5v3c0 2 0.333008 4.33301 1 7c0 2.66699 -1 4 -3 4c-0.666992 0 -2 -0.5 -4 -1.5s-4.66699 -3.5 -8 -7.5l-56 -55c-1.33301 -1.33301 -2.5 -2.66602 -3.5 -3.99902s-1.5 -2.66602 -1.5 -3.99902
c0 -3.33301 2 -5 6 -5c2 0 3.83301 0.5 5.5 1.5s3.5 1.5 5.5 1.5c7.33301 0 12.5 -5.83301 15.5 -17.5s4.5 -25.167 4.5 -40.5v-260z" />
    <glyph glyph-name="s" unicode="s" horiz-adv-x="296" 
d="M117 432l-22.5 -11.5049c-8.33301 -4.33301 -16.166 -9.5 -23.499 -15.5s-13.5 -12.833 -18.5 -20.5s-7.5 -16.5 -7.5 -26.5v-76c0 -9.33301 1.5 -18.666 4.5 -27.999s7 -17.666 12 -24.999s11 -13.333 18 -18s14.5 -7 22.5 -7c4 0 8.83301 2 14.5 6
s11.167 8.33301 16.5 13l14.5 13c4.33301 4 7.5 6 9.5 6c6 0 12.5 -1.83301 19.5 -5.5s13.167 -9.66699 18.5 -18s9.83301 -19.166 13.5 -32.499s5.5 -29.666 5.5 -48.999c0 -16.667 -2 -30.5 -6 -41.5s-8.16699 -19.5 -12.5 -25.5s-8.5 -10 -12.5 -12s-6 -2.33301 -6 -1
s-2.16699 4.5 -6.5 9.5s-9.66602 10.167 -15.999 15.5s-13.5 10 -21.5 14s-16 6 -24 6l-3 10.5c-2 7 -3.66699 10.5 -5 10.5c-2.66699 0 -5 -3.33301 -7 -10s-4.33301 -10 -7 -10c-2 0 -5.5 -3 -10.5 -9s-10 -12.5 -15 -19.5s-9 -13.333 -12 -19s-3.5 -8.5 -1.5 -8.5
c0.666992 0 1.33398 0.333008 2.00098 1s3.33398 1 8.00098 1c6.66699 0 13.834 -2.5 21.501 -7.5s15.167 -10.667 22.5 -17s14.333 -12 21 -17s12 -7.5 16 -7.5c0.666992 0 4.5 2.5 11.5 7.5s15.667 11.833 26 20.5s21.333 19 33 31s22.667 24.833 33 38.5
s18.833 28.167 25.5 43.5s10 30.666 10 45.999c0 17.333 -2.16699 32.833 -6.5 46.5s-9.83301 25 -16.5 34s-13.834 15.833 -21.501 20.5s-14.834 7 -21.501 7c-2.66699 0 -6.83398 -2.33301 -12.501 -7l-18 -15c-6.33301 -5.33301 -13 -10.333 -20 -15s-13.167 -7 -18.5 -7
c-7.33301 0 -12.5 4.16699 -15.5 12.5s-4.5 16.5 -4.5 24.5v122c0 6.66699 3 9.5 9 8.5s12.667 -3.66699 20 -8s14.166 -9 20.499 -14s10.166 -8.16699 11.499 -9.5c3.33301 -4 5.33301 -9.5 6 -16.5s1.66699 -10.5 3 -10.5c3.33301 0 7 4.33301 11 13s8.66699 15.667 14 21
c14 14 24.5 22.333 31.5 25s10.5 6 10.5 10c0 0.666992 -1.5 1.33398 -4.5 2.00098s-6.5 1.33398 -10.5 2.00098l-12.5 2c-4.33301 0.666992 -7.5 1.66699 -9.5 3c-12.667 6 -21.5 13.5 -26.5 22.5s-9.16699 13.5 -12.5 13.5c-2 0 -5.5 -1.5 -10.5 -4.5
s-10.5 -6.66699 -16.5 -11l-19.5 -14c-7 -5 -13.833 -9.16699 -20.5 -12.5z" />
    <glyph glyph-name="t" unicode="t" horiz-adv-x="270" 
d="M67 408l0.00195312 -261.001c0 -18.667 2.66699 -36.667 8 -54s12.166 -32.833 20.499 -46.5s17.5 -24.5 27.5 -32.5s19.333 -12 28 -12v-11c3.33301 0 5.33301 0.166992 6 0.5l1 0.5l105 104l5 7c0 4 -1.66699 6 -5 6c-1.33301 0 -4.5 -2 -9.5 -6
s-10.5 -8.16699 -16.5 -12.5l-18 -12.5c-6 -4 -11 -6 -15 -6c-2.66699 0 -7.16699 3 -13.5 9s-12.833 14.667 -19.5 26s-12.5 25 -17.5 41s-7.5 34.333 -7.5 55v203c13.333 0.666992 24.333 1 33 1h14c8.66699 -0.666992 16 1.83301 22 7.5s10.833 12.334 14.5 20.001
s6.16699 15 7.5 22s2 11.833 2 14.5c0 0.666992 -0.333008 1 -1 1v0h-92c0.666992 22.667 3.66699 40.834 9 54.501s11 24.167 17 31.5s11.667 12.333 17 15s8.66602 4 9.99902 4c4.66699 0 7 2 7 6c0 4.66699 -4.66699 7 -14 7c-8 0 -17.667 -3.66699 -29 -11
s-22.833 -16.833 -34.5 -28.5s-22.667 -24.5 -33 -38.5s-17.833 -28 -22.5 -42c-4 -3.33301 -9 -7.83301 -15 -13.5s-11.5 -11.5 -16.5 -17.5l-13 -16c-3.66699 -4.66699 -5.5 -7.33398 -5.5 -8.00098c0 -2 4.16699 -3.5 12.5 -4.5s18.833 -1.83301 31.5 -2.5z" />
    <glyph glyph-name="u" unicode="u" horiz-adv-x="355" 
d="M179 74c-2.66699 0 -5.83691 1.16113 -9.50391 3.49414s-7.33398 5 -11.001 8s-6.66699 5.83301 -9 8.5s-3.5 4.66699 -3.5 6v256c0 8 -2 17.5 -6 28.5s-8.5 21.333 -13.5 31s-9.83301 18 -14.5 25s-8 10.5 -10 10.5c0 2 1.16699 4.66699 3.5 8s3.5 6 3.5 8
c0 0.666992 -0.166992 1.66699 -0.5 3s-0.833008 2 -1.5 2c-2 0 -4.33301 -0.666992 -7 -2s-6.66699 -4.66602 -12 -9.99902l-58 -59c0.666992 -0.666992 3.83398 -3.16699 9.50098 -7.5s11.667 -13.166 18 -26.499s9.5 -31 9.5 -53v-189c0 -14 -1 -25.667 -3 -35
s-4.33301 -16.666 -7 -21.999s-5 -9.5 -7 -12.5s-3 -4.83301 -3 -5.5c0 -2 2.5 -3.5 7.5 -4.5s10.833 -2.5 17.5 -4.5s13.5 -4.83301 20.5 -8.5s12.5 -8.83398 16.5 -15.501c1.33301 -3.33301 3.33301 -7 6 -11s5 -6 7 -6s7.66699 3.16699 17 9.5s19.5 15 30.5 26
s21.833 24.333 32.5 40s18.334 32.834 23.001 51.501c0 -17.333 2.83301 -33 8.5 -47s12 -26.167 19 -36.5s13.333 -18.5 19 -24.5s8.5 -9.33301 8.5 -10c0 -1.33301 0.166992 -3.33301 0.5 -6s2.83301 -4 7.5 -4c2 0 7.66699 3.16699 17 9.5s18.833 13.333 28.5 21l25.5 21
c7.33301 6.33301 10.333 9.5 9 9.5c-5.33301 0 -8.83301 -0.333008 -10.5 -1s-3.16699 -1 -4.5 -1c-3.33301 0 -7.66602 1.83301 -12.999 5.5s-10.833 9.5 -16.5 17.5s-10.5 18.333 -14.5 31s-6 28 -6 46v211c0 7.33301 2.66699 14 8 20s10.333 10.5 15 13.5
s7.33398 4.83301 8.00098 5.5c0 0.666992 -1.33301 1.83398 -4 3.50098s-5.66699 3.33398 -9 5.00098s-6.66602 3.5 -9.99902 5.5s-5.66602 3.66699 -6.99902 5c-10 12 -16.333 22.5 -19 31.5s-5.33398 13.5 -8.00098 13.5c-3.33301 0 -8.83301 -3.16699 -16.5 -9.5
s-15.5 -13.333 -23.5 -21s-15 -14.834 -21 -21.501l-9 -10c0 -4.66699 1 -8.5 3 -11.5l6 -9l6 -9c2 -3 3 -6.83301 3 -11.5v-180c0 -13.333 -1.66699 -26.666 -5 -39.999s-7.33301 -25.666 -12 -36.999s-9.66699 -20.5 -15 -27.5s-10 -10.5 -14 -10.5z" />
    <glyph glyph-name="v" unicode="v" horiz-adv-x="391" 
d="M-9 398c4 0 9.33301 -0.50293 16 -1.50293s13.667 -3.16699 21 -6.5s14.166 -9 20.499 -17s11.5 -19 15.5 -33l68 -257c1.33301 -6 1.5 -12.167 0.5 -18.5s-2.5 -12 -4.5 -17s-3.66699 -9 -5 -12s-1.33301 -4.5 0 -4.5c4.66699 0 10.834 -1 18.501 -3
s15.167 -4.5 22.5 -7.5s13.833 -6.33301 19.5 -10s8.5 -7.16699 8.5 -10.5c0 -2 4.5 0 13.5 6s20.167 15.167 33.5 27.5s27.833 27.666 43.5 45.999s30.167 38.833 43.5 61.5s24.5 47.334 33.5 74.001s13.5 54.667 13.5 84c0 27.333 -5.66699 51.833 -17 73.5
s-24 39.834 -38 54.501s-27.667 25.834 -41 33.501s-22 11.5 -26 11.5c-0.666992 0 -1.16699 1.5 -1.5 4.5s-0.666016 6.33301 -0.999023 10s-1 7 -2 10s-2.5 4.5 -4.5 4.5s-5.16699 -2.5 -9.5 -7.5s-8 -9.66699 -11 -14s-4.83301 -6.83301 -5.5 -7.5l-86 -85
c-0.666992 1.33301 -3 6.33301 -7 15s-9.83301 19.167 -17.5 31.5s-15.5 21.166 -23.5 26.499c-2 1.33301 -2 3.83301 0 7.5s3 6.5 3 8.5s-1.66699 3 -5 3c-0.666992 0 -2.33398 -1.16699 -5.00098 -3.5s-5.5 -5.16602 -8.5 -8.49902s-6.16699 -6.66602 -9.5 -9.99902l-9 -9
c-4.66699 -4 -10.667 -8.83301 -18 -14.5l-21 -16.5c-6.66699 -5.33301 -12 -9.83301 -16 -13.5s-4.66699 -5.5 -2 -5.5zM137 375.997l42.0029 42c4 0 12.667 -1.5 26 -4.5s27.166 -9.83301 41.499 -20.5s27 -26 38 -46s16.5 -47 16.5 -81c0 -36 -2.83301 -67 -8.5 -93
s-11.834 -47.5 -18.501 -64.5s-12.834 -29.5 -18.501 -37.5l-8.5 -12c0 2.66699 -1.66699 5 -5 7s-7 4 -11 6l-11 5.5c-3.33301 1.66699 -5.33301 3.5 -6 5.5z" />
    <glyph glyph-name="w" unicode="w" horiz-adv-x="544" 
d="M130 365c0.666992 0.666992 3.16797 3.33301 7.50098 8s9.66602 9.66699 15.999 15s11.166 8 14.499 8c8.66699 0 17.667 -4 27 -12s16.666 -22.667 21.999 -44l68 -257c1.33301 -6 1.5 -12.167 0.5 -18.5s-2.5 -12 -4.5 -17s-3.66699 -9 -5 -12s-1.33301 -4.5 0 -4.5
c4.66699 0 10.834 -1 18.501 -3s15.167 -4.5 22.5 -7.5s13.833 -6.33301 19.5 -10s8.5 -7.16699 8.5 -10.5c0 -2 4.5 0 13.5 6s20.167 15.167 33.5 27.5s27.833 27.666 43.5 45.999s30.167 38.833 43.5 61.5s24.5 47.334 33.5 74.001s13.5 54.667 13.5 84
c0 27.333 -5.66699 51.833 -17 73.5s-24 39.834 -38 54.501s-27.667 25.834 -41 33.501s-22 11.5 -26 11.5c-0.666992 0 -1.33398 1.5 -2.00098 4.5s-1.33398 6.33301 -2.00098 10s-1.33398 7 -2.00098 10s-1.66699 4.5 -3 4.5c-2 0 -5.16699 -2.5 -9.5 -7.5
s-8.16602 -9.66699 -11.499 -14s-5.33301 -6.83301 -6 -7.5l-83 -82c-4.66699 11.333 -9.16699 20.666 -13.5 27.999s-8.66602 13.333 -12.999 18s-9 8.83398 -14 12.501s-10.5 7.5 -16.5 11.5c-2 1.33301 -2.33301 3.5 -1 6.5s2 5.5 2 7.5c0 3.33301 -1 5 -3 5
c-1.33301 0 -4.16602 -2.16699 -8.49902 -6.5l-6.5 -6.5l-86 -86l-5 9.5l-11 21c-4 7.66699 -8 14.667 -12 21s-7 9.5 -9 9.5c-1.33301 0 -1.5 3.16699 -0.5 9.5s1.5 12.5 1.5 18.5c0 7.33301 -1.33301 11 -4 11c-0.666992 0 -5.66699 -4.16699 -15 -12.5l-30.5 -28
l-30 -28.5c-9 -8.66699 -13.5 -13.334 -13.5 -14.001c0 -1.33301 1.66699 -1.5 5 -0.5s7.33301 1.5 12 1.5c10.667 0 20 -7.83301 28 -23.5s14.333 -32.5 19 -50.5l60 -229c1.33301 -7.33301 0.833008 -14 -1.5 -20s-4.83301 -11.333 -7.5 -16
s-4.83398 -8.33398 -6.50098 -11.001s-1.16699 -4 1.5 -4c8.66699 0 16.834 -2.33301 24.501 -7s14.334 -9.66699 20.001 -15s10 -10.333 13 -15s4.16699 -7 3.5 -7l10 10l22.5 22l23 22l10.5 10c0 0.666992 -1.33301 2 -4 4s-5.5 3.83301 -8.5 5.5l-9 5
c-3 1.66699 -4.5 3.16699 -4.5 4.5zM290.001 374.999l43.002 43c4 0 12.667 -1.5 26 -4.5s27 -9.83301 41 -20.5s26.5 -26 37.5 -46s16.5 -47 16.5 -81c0 -36 -2.83301 -67 -8.5 -93s-11.834 -47.5 -18.501 -64.5s-12.834 -29.5 -18.501 -37.5l-8.5 -12
c0 2.66699 -1.66699 5 -5 7s-7 4 -11 6l-11 5.5c-3.33301 1.66699 -5.33301 3.5 -6 5.5z" />
    <glyph glyph-name="x" unicode="x" horiz-adv-x="301" 
d="M92 199c0 -29.333 -6.16797 -58.998 -18.501 -88.998s-27 -57 -44 -81s-34.5 -43.5 -52.5 -58.5s-32.333 -22.5 -43 -22.5c-2 0 -3 -1 -3 -3s1.33301 -3 4 -3c12 0 26.167 5.16699 42.5 15.5s33 23.833 50 40.5s33 35.5 48 56.5s27.167 41.833 36.5 62.5
c7.33301 -14.667 15.5 -28.167 24.5 -40.5s17.333 -23 25 -32s14.167 -16 19.5 -21l8 -7.5c6.66699 -6 12.167 -13.667 16.5 -23s8.16602 -14 11.499 -14c2.66699 0 6 4.83301 10 14.5s8.33301 18.167 13 25.5c6 9.33301 13.5 18.5 22.5 27.5s13.167 15.833 12.5 20.5
c0 3.33301 -2 4.16602 -6 2.49902s-6.66699 -2.5 -8 -2.5c-3.33301 0 -10 5 -20 15s-20.5 21.833 -31.5 35.5s-20.667 27.667 -29 42s-12.5 25.5 -12.5 33.5v126v6c1.33301 4.66699 3 9.83398 5 15.501s4.16699 11 6.5 16s4.66602 9.16699 6.99902 12.5s4.5 5 6.5 5
c14.667 0 27.334 -4.33301 38.001 -13s16 -16.667 16 -24c0 -2.66699 -0.166992 -6.33398 -0.5 -11.001l-0.5 -7l8 13l17.5 29.5c6.33301 11 12.166 21.667 17.499 32s8 16.833 8 19.5c0 6 -3 12.5 -9 19.5s-13 13.5 -21 19.5s-15.667 11 -23 15s-12 6 -14 6
c-4 0 -9.5 -5.5 -16.5 -16.5s-14 -23.5 -21 -37.5s-13.333 -27.5 -19 -40.5l-11.5 -26.5c-3.33301 9.33301 -7.83301 18.5 -13.5 27.5s-11.667 17.833 -18 26.5l-19 25c-6.33301 8 -11.833 15.667 -16.5 23l-5.5 14c-2.33301 6 -4.16602 7.66699 -5.49902 5
c-2.66699 -3.33301 -5.5 -6.66602 -8.5 -9.99902s-6.16699 -6.66602 -9.5 -9.99902c-6 -6 -12.667 -12.167 -20 -18.5l-21 -17.5l-16.5 -13.5c-4.33301 -3.66699 -6.5 -5.83398 -6.5 -6.50098c1.33301 -3.33301 6.33301 -4.5 15 -3.5s16.667 0.166992 24 -2.5
c2 -0.666992 5.83301 -4.33398 11.5 -11.001s11.334 -14.667 17.001 -24s10.834 -19.833 15.501 -31.5s7 -22.834 7 -33.501v-92z" />
    <glyph glyph-name="y" unicode="y" horiz-adv-x="322" 
d="M142 378c-2 6.66699 -4.83496 14.165 -8.50195 22.498s-7.5 16.166 -11.5 23.499s-7.83301 13.5 -11.5 18.5s-6.5 7.5 -8.5 7.5c0 2 1.16699 5 3.5 9s3.5 7 3.5 9c0 2.66699 -0.666992 4 -2 4s-3.33301 -0.5 -6 -1.5s-6.66699 -4.16699 -12 -9.5l-59 -60
c0.666992 -0.666992 3.83398 -3 9.50098 -7s11.667 -13 18 -27s9.5 -33 9.5 -57v-281c0 -6.66699 -2.66699 -12.167 -8 -16.5s-8 -8.16602 -8 -11.499c0 -2 3 -3.83301 9 -5.5l20.5 -5.5c7.66699 -2 15.167 -4.5 22.5 -7.5s12.666 -7.5 15.999 -13.5
c-12.667 -16 -24.834 -30.167 -36.501 -42.5s-22 -22.666 -31 -30.999s-16.333 -14.833 -22 -19.5l-8.5 -7c-3.33301 0 -6.66602 1.5 -9.99902 4.5s-5.66602 4.5 -6.99902 4.5c-2.66699 0 -4.66699 -5 -6 -15s-2 -19 -2 -27v-15c0 2 7.66699 9.16699 23 21.5
s34.333 29 57 50s47.334 46.167 74.001 75.5s51.334 62.333 74.001 99s41.667 76.667 57 120s23 89.333 23 138c0 20.667 -2.33301 38.667 -7 54s-10 28.333 -16 39s-11.5 18.667 -16.5 24s-7.83301 8 -8.5 8c-1.33301 0 -2.33301 1.5 -3 4.5s-1.5 6.16699 -2.5 9.5
s-1.83301 6.5 -2.5 9.5s-1.33398 4.5 -2.00098 4.5c-1.33301 0 -3 -0.666992 -5 -2s-6.66699 -5.66602 -14 -12.999zM155.998 16.998c-6.66699 5.33301 -10.001 12.667 -10.001 22v324l12.5 10.5l14.5 12.5l12 10.5c3.33301 3 5.33301 4.5 6 4.5
c2 0 5.83301 -2.83301 11.5 -8.5s11.334 -14.667 17.001 -27s10.667 -28.5 15 -48.5s6.5 -44 6.5 -72c0 -22.667 -2.33301 -44.167 -7 -64.5s-10.834 -39.666 -18.501 -57.999s-16.667 -36.333 -27 -54s-21.166 -34.834 -32.499 -51.501z" />
    <glyph glyph-name="z" unicode="z" horiz-adv-x="288" 
d="M69 463c0 4.66699 0.663086 9.66113 1.99609 14.9941s1.33301 8 0 8c-2 0 -5.66699 -3 -11 -9s-10.666 -13 -15.999 -21s-10.166 -16.333 -14.499 -25s-6.5 -15.667 -6.5 -21c0 -16 4.83301 -28.333 14.5 -37s21.5 -15.334 35.5 -20.001s29 -7.5 45 -8.5
s30.333 -1.5 43 -1.5l-150 -150l12 4.5c8 3 16.667 4.5 26 4.5c4 0 12 -2 24 -6s24.5 -9.66699 37.5 -17s24.667 -16.5 35 -27.5s15.5 -23.5 15.5 -37.5c0 -9.33301 -4.5 -19.166 -13.5 -29.499s-19.5 -20 -31.5 -29s-23.667 -16.833 -35 -23.5l-24 -14
c-26 -15.333 -45 -32 -57 -50s-18 -36 -18 -54c0 -23.333 4 -41.666 12 -54.999s17 -23.166 27 -29.499s19.667 -10.166 29 -11.499s15.333 -2 18 -2c12 0 22.333 3 31 9s15.834 13 21.501 21s9.83398 16 12.501 24s4 14 4 18c0 3.33301 -0.666992 5 -2 5
c-0.666992 0 -1.83398 -3.5 -3.50098 -10.5s-5 -14.667 -10 -23s-11.667 -16 -20 -23s-19.5 -10.5 -33.5 -10.5c-4.66699 0 -11 1 -19 3s-16 6.33301 -24 13s-14.833 16 -20.5 28s-8.5 27.667 -8.5 47c0 12.667 2.66699 24 8 34s12.166 18.833 20.499 26.5
s17.833 14.5 28.5 20.5s21.334 11.667 32.001 17c12.667 6 28.334 14.167 47.001 24.5s36.5 21.833 53.5 34.5s31.667 26.334 44 41.001s18.5 29.667 18.5 45c0 17.333 -8.16699 32 -24.5 44s-34.5 21.833 -54.5 29.5s-38.167 13.334 -54.5 17.001l-24.5 5.5l166 166
l-16.5 -6.5c-11 -4.33301 -24.833 -6.5 -41.5 -6.5c-10 0 -22.5 1.5 -37.5 4.5s-29.167 7 -42.5 12s-24.833 10.833 -34.5 17.5s-14.5 13.334 -14.5 20.001z" />
    <glyph glyph-name="braceleft" unicode="{" horiz-adv-x="472" 
d="M299 612c10.667 0 20.8311 3.33203 30.498 9.99902s18.167 14.334 25.5 23.001s13 17.5 17 26.5s6 16.167 6 21.5h-167c-18.667 0 -35.667 -4.33301 -51 -13s-28.5 -19.834 -39.5 -33.501s-19.5 -28.834 -25.5 -45.501s-9 -33 -9 -49
c0 -11.333 1.16699 -21.166 3.5 -29.499s5 -16.5 8 -24.5s5.66699 -16.333 8 -25s3.5 -19 3.5 -31c0 -8 -5.66699 -18 -17 -30s-23.666 -23.5 -36.999 -34.5s-25.666 -20.5 -36.999 -28.5l-17 -12l13.5 -2.5c9 -1.66699 18.833 -4.83398 29.5 -9.50098
s20.5 -11.5 29.5 -20.5s13.5 -20.833 13.5 -35.5c0 -19.333 -2.83301 -43.666 -8.5 -72.999s-8.83398 -63.333 -9.50098 -102c0 -26 3.5 -48.167 10.5 -66.5s20.833 -27.5 41.5 -27.5h160c12 0 23.833 3.33301 35.5 10s22 14.334 31 23.001s16.333 17.5 22 26.5
s8.5 16.167 8.5 21.5h-229c-3.33301 0 -5.66602 5.66699 -6.99902 17s-2.5 25 -3.5 41s-1.5 33 -1.5 51v47c0 28.667 -5.33301 50.5 -16 65.5s-22.167 25.667 -34.5 32s-23.833 9.83301 -34.5 10.5l-16 1l20 10.5c13.333 7 27.833 16.5 43.5 28.5s30.167 26 43.5 42
s20 33 20 51c0 9.33301 -2 19 -6 29s-8.5 20 -13.5 30s-9.5 19.833 -13.5 29.5s-6 19.167 -6 28.5c0 11.333 11 17 33 17h22h49h49h22z" />
    <glyph glyph-name="bar" unicode="|" horiz-adv-x="139" 
d="M40 0l10 5.49805c6.66699 3.66699 13.834 8.33398 21.501 14.001s14.834 12.334 21.501 20.001s10 15.5 10 23.5v568l-10 -5.5c-6.66699 -3.66699 -13.834 -8.5 -21.501 -14.5s-14.834 -12.833 -21.501 -20.5s-10 -15.5 -10 -23.5v-567z" />
    <glyph glyph-name="braceright" unicode="}" horiz-adv-x="472" 
d="M174 81c-11.333 0 -21.8311 -3.16797 -31.498 -9.50098s-18 -13.833 -25 -22.5s-12.667 -17.667 -17 -27s-6.5 -16.666 -6.5 -21.999h168c18.667 -0 35.5 4.33301 50.5 13s28 19.834 39 33.501s19.5 28.834 25.5 45.501s9 33 9 49c0 11.333 -1.16699 21.166 -3.5 29.499
s-4.83301 16.5 -7.5 24.5s-5.16699 16.333 -7.5 25s-3.5 19 -3.5 31c0 8 5.66699 18 17 30s23.666 23.5 36.999 34.5s25.666 20.333 36.999 28l17 11.5l-13.5 2.5c-9 1.66699 -19 5 -30 10s-21 12 -30 21s-13.5 20.833 -13.5 35.5c0 19.333 2.83301 43.666 8.5 72.999
s8.83398 63 9.50098 101c0 26.667 -3.5 49.167 -10.5 67.5s-20.5 27.5 -40.5 27.5h-160c-12.667 0 -24.834 -3.33301 -36.501 -10s-22 -14.5 -31 -23.5s-16.333 -18 -22 -27s-8.5 -15.833 -8.5 -20.5h229c3.33301 0 5.83301 -5.66699 7.5 -17s3 -25.166 4 -41.499
s1.5 -33.5 1.5 -51.5v-46c0 -28.667 5.16699 -50.5 15.5 -65.5s21.833 -25.833 34.5 -32.5s24.167 -10.334 34.5 -11.001l15.5 -1l-19.5 -10c-13 -6.66699 -27.5 -16 -43.5 -28s-30.5 -26 -43.5 -42s-19.5 -33 -19.5 -51c0 -9.33301 2 -19 6 -29s8.33301 -20 13 -30
s9 -20 13 -30s6 -19.333 6 -28c0 -11.333 -11 -17 -33 -17h-15h-35h-42h-35h-14z" />
    <glyph glyph-name="asciitilde" unicode="~" horiz-adv-x="490" 
d="M43 276c0.666992 0.666992 4.33301 2.99902 11 6.99902s16.167 8.33301 28.5 13s25.166 7 38.499 7c18.667 -0.666992 36.5 -3.66699 53.5 -9s33.833 -11.166 50.5 -17.499s33.5 -12.166 50.5 -17.499s34.5 -8 52.5 -8c16 0 32.333 4.5 49 13.5
s31.834 18.833 45.501 29.5s24.834 20.5 33.501 29.5l13 13.5c-0.666992 -0.666992 -3.5 -2.66699 -8.5 -6s-12.833 -7 -23.5 -11s-22.334 -6 -35.001 -6c-14 0 -28.5 2.66699 -43.5 8l-47.5 17.5c-16.667 6.33301 -33.834 12.166 -51.501 17.499s-36.167 8 -55.5 8
c-12 0 -27 -4.66699 -45 -14s-35.667 -19.5 -53 -30.5s-32.166 -21.167 -44.499 -30.5z" />
    <glyph glyph-name="exclamdown" unicode="&#xa1;" horiz-adv-x="207" 
d="M135 518c0 4 -3.33105 9.66602 -9.99805 16.999s-14.334 14.833 -23.001 22.5s-17 14.167 -25 19.5s-13 8 -15 8c-0.666992 0 -4.33398 -2.66699 -11.001 -8s-13.667 -11.666 -21 -18.999s-14.166 -14.666 -20.499 -21.999s-9.5 -13 -9.5 -17
c0 -2.66699 3.33301 -8 10 -16s14 -16.333 22 -25s15.667 -16.334 23 -23.001s11.666 -10 12.999 -10c2 0 6.66699 3.83301 14 11.5s14.833 16 22.5 25l21 25zM135.002 48.999c0 2.66699 -1.66895 12.334 -5.00195 29.001l-12 60.5c-4.66699 23.667 -10 49 -16 76l-17 75
c-5.33301 23 -10.166 42 -14.499 57s-7.16602 22.5 -8.49902 22.5c-0.666992 0 -2.66699 -7.5 -6 -22.5s-7.16602 -34 -11.499 -57l-14.5 -74.5l-14.5 -75.5l-11 -61c-3 -17 -4.5 -26.833 -4.5 -29.5s3.33301 -8 10 -16s14 -16.333 22 -25s15.667 -16.334 23 -23.001
s11.666 -10 12.999 -10c2 0 6.66699 3.83301 14 11.5s14.833 16.167 22.5 25.5l21 25.5z" />
    <glyph glyph-name="cent" unicode="&#xa2;" horiz-adv-x="275" 
d="M149 -89l7.99805 102.999c1.33301 0 6.33301 4.5 15 13.5s17.667 19 27 30l25 30.5c7.33301 9.33301 10.333 14 9 14c-0.666992 -0.666992 -3.33398 -2.5 -8.00098 -5.5s-10.167 -6.33301 -16.5 -10s-10.833 -5.5 -13.5 -5.5c-8 0 -16.167 2.83301 -24.5 8.5
s-15.833 13.334 -22.5 23.001s-12.167 20.834 -16.5 33.501s-6.5 26 -6.5 40v220c0 5.33301 1.83301 10.333 5.5 15s6.83398 7 9.50098 7c2 0 6.16699 -2.33301 12.5 -7s12.666 -9.83398 18.999 -15.501s12 -11 17 -16s7.5 -8.16699 7.5 -9.5
c0 -3.33301 -0.166992 -6.83301 -0.5 -10.5s0.833984 -5.5 3.50098 -5.5c1.33301 0 5.5 3.66699 12.5 11l23.5 24.5l25 25c8 7.66699 14 11.5 18 11.5l-16 5c-10.667 3.33301 -21 7.66602 -31 12.999c-7.33301 3.33301 -13.666 7.16602 -18.999 11.499
s-8.66602 6.5 -9.99902 6.5l10 109l-44 -32l-11 -90c-3.33301 0 -10.833 -3.83301 -22.5 -11.5s-24 -16.667 -37 -27s-24.667 -20.833 -35 -31.5s-15.5 -18.667 -15.5 -24v-218c0 -21.333 3.33301 -40.166 10 -56.499s14.167 -30.166 22.5 -41.499s16 -20 23 -26
s10.833 -9 11.5 -9l-9 -144z" />
    <glyph glyph-name="sterling" unicode="&#xa3;" horiz-adv-x="616" 
d="M207 320l0.00390625 -97.001c0 -29.333 -1.16699 -51.5 -3.5 -66.5s-4.5 -24.333 -6.5 -28s-3.33301 -5.5 -4 -5.5l-6.5 1c-4.33301 0.666992 -10.5 1 -18.5 1c-29.333 0 -54.833 -3.5 -76.5 -10.5s-39.667 -15.667 -54 -26s-25 -21.166 -32 -32.499
s-10.5 -21.333 -10.5 -30c0 -10.667 3.16699 -19.5 9.5 -26.5s12.166 -12 17.499 -15s8.33301 -4.5 9 -4.5s0 0.833008 -2 2.5s-4.5 4.16699 -7.5 7.5s-5.83301 7.16602 -8.5 11.499s-4 9.5 -4 15.5c0 7.33301 2.16699 14.333 6.5 21s10 12.5 17 17.5s14.833 9 23.5 12
s17 4.5 25 4.5c16.667 0 35.167 -3.83301 55.5 -11.5l64 -25c22.333 -9 45 -17.167 68 -24.5s45.167 -11 66.5 -11c27.333 0 54.5 3.83301 81.5 11.5s51.167 18.334 72.5 32.001s38.666 30 51.999 49s20 40.167 20 63.5c0 26 -5.33301 45.833 -16 59.5
s-22.167 23.5 -34.5 29.5s-23.833 9 -34.5 9c-10 0 -14.667 -0.666992 -14 -2c0 -1.33301 4.16699 -2.5 12.5 -3.5s17.166 -3.83301 26.499 -8.5s18 -12 26 -22s12 -24.333 12 -43c0 -36.667 -13.667 -63.834 -41 -81.501s-62 -26.5 -104 -26.5c-14 0 -27 1.83301 -39 5.5
s-24.333 8 -37 13l-38.5 15.5c-13 5.33301 -27.5 9.66602 -43.5 12.999c-6 1.33301 -13.167 2.83301 -21.5 4.5l-12.5 2.5l13 13c8.66699 8.66699 18.167 18.834 28.5 30.501s19.833 23.5 28.5 35.5s13 21.667 13 29v91h104l49 75h-153v152c0 4 2.66699 13 8 27
s13.833 28.5 25.5 43.5s26.167 28.333 43.5 40s38 17.5 62 17.5c28.667 0 51.334 -6.83301 68.001 -20.5s25 -32.834 25 -57.501c0 -12 -1.83301 -22.333 -5.5 -31s-8.33398 -15.834 -14.001 -21.501s-11.834 -9.66699 -18.501 -12s-13 -3.5 -19 -3.5
c-13.333 0 -23.666 2 -30.999 6s-12 7.83301 -14 11.5s-3 5.83398 -3 6.50098c3.33301 0 6.33301 1.16699 9 3.5s4 6.5 4 12.5c0 4 -1.5 7.83301 -4.5 11.5s-7.16699 5.5 -12.5 5.5c-6 0 -10.333 -2 -13 -6s-4 -8.33301 -4 -13c0 -10.667 6.16699 -21.667 18.5 -33
s28.5 -17 48.5 -17c25.333 0 44 8.83301 56 26.5s18 38.834 18 63.501c0 22.667 -9.16699 42.667 -27.5 60s-45.5 26 -81.5 26c-26 0 -51.167 -7.66699 -75.5 -23s-46.333 -32.166 -66 -50.499s-36 -35.166 -49 -50.499s-21.5 -23 -25.5 -23s-9.16699 0.5 -15.5 1.5
s-12.333 2 -18 3s-10.834 1.5 -15.501 1.5c-4 0 -6 -1 -6 -3c0 -2.66699 2.83301 -5.16699 8.5 -7.5s12 -5.83301 19 -10.5s13.333 -10.834 19 -18.501s8.5 -18.167 8.5 -31.5v-86h-104l-49 -75h153z" />
    <glyph glyph-name="currency" unicode="&#xa4;" horiz-adv-x="454" 
d="M289 75l75.002 -74.998l20 21l-74 74c10.667 13.333 19 28.333 25 45s9 34.334 9 53.001c0 18 -3 35.167 -9 51.5s-14.333 31.166 -25 44.499l73 73l-21 20l-72 -72c-13.333 11.333 -28.333 20.166 -45 26.499s-34.667 9.5 -54 9.5c-18.667 0 -36.167 -3 -52.5 -9
s-31.166 -14.667 -44.499 -26l-73 72l-21 -20l73 -73c-11.333 -13.333 -20 -28.333 -26 -45s-9 -34 -9 -52c0 -19.333 3 -37.333 9 -54s14.667 -31.667 26 -45l-73 -73l21 -21l73 74c13.333 -11.333 28.166 -20 44.499 -26s33.833 -9 52.5 -9
c19.333 0 37.166 3.16699 53.499 9.5s31.166 15.166 44.499 26.499zM191.002 317.002c17.333 0 33.5 -3.33301 48.5 -10s28.167 -15.5 39.5 -26.5s20.166 -24.167 26.499 -39.5s9.5 -31.333 9.5 -48c0 -17.333 -3.16699 -33.666 -9.5 -48.999
s-15.166 -28.666 -26.499 -39.999s-24.5 -20.333 -39.5 -27s-31.167 -10 -48.5 -10s-33.666 3.33301 -48.999 10s-28.5 15.667 -39.5 27s-19.667 24.666 -26 39.999s-9.5 31.666 -9.5 48.999c0 16.667 3.16699 32.667 9.5 48s15 28.5 26 39.5s24.167 19.833 39.5 26.5
s31.666 10 48.999 10z" />
    <glyph glyph-name="yen" unicode="&#xa5;" horiz-adv-x="368" 
d="M193 94l-0.00292969 42.9922h90l36 30h-126v38h90l36 31h-126v19c4 3.33301 11.833 12.333 23.5 27s23.834 32.667 36.501 54s24 44.666 34 69.999s15 50.333 15 75c0 20.667 -2.33301 38.834 -7 54.501s-10 28.834 -16 39.501s-11.5 18.667 -16.5 24s-7.83301 8 -8.5 8
c-1.33301 0 -2.33301 1.33301 -3 4s-1.5 5.83398 -2.5 9.50098s-1.83301 6.83398 -2.5 9.50098s-1.33398 4 -2.00098 4c-2.66699 0 -8.66699 -4.16699 -18 -12.5l-31.5 -29.5l-33 -33.5l-22.5 -24.5c-1.33301 6 -3.5 13 -6.5 21s-6.33301 15.833 -10 23.5
s-7.33398 14 -11.001 19s-6.5 7.5 -8.5 7.5s-2.16699 1.33301 -0.5 4s3.83398 5.5 6.50098 8.5s4.83398 5.83301 6.50098 8.5s1.5 4 -0.5 4c-4 0 -10.833 -3.83301 -20.5 -11.5s-19.5 -16 -29.5 -25s-18.667 -17.167 -26 -24.5l-11 -11
c0.666992 -0.666992 3.83398 -3 9.50098 -7s11.834 -13 18.501 -27s10 -33 10 -57v-171c0 -6.66699 -2.83301 -12.167 -8.5 -16.5s-8.5 -8.16602 -8.5 -11.499c0 -2.66699 3.33301 -5 10 -7s14.167 -4 22.5 -6s15.833 -4.5 22.5 -7.5s10 -6.5 10 -10.5l-90 -1l-36 -31h126
v-38h-90l-36 -30h126v-60c0 -5.33301 -2 -9.16602 -6 -11.499s-6 -4.16602 -6 -5.49902s3 -5.33301 9 -12s13 -13.667 21 -21s15.833 -14 23.5 -20s13.167 -9 16.5 -9c1.33301 0 5 3.66699 11 11l19.5 24l19 24.5c5.66699 7.66699 8.5 11.834 8.5 12.501
c0 2 -2.16699 1 -6.5 -3s-7.83301 -6 -10.5 -6c-1.33301 0 -5 3.33301 -11 10s-9 14.334 -9 23.001zM143.997 518.992c9.33301 11.333 18.833 20.6699 28.5 28.0029s15.167 11 16.5 11c2 0 5.83301 -2.83301 11.5 -8.5s11.334 -14.834 17.001 -27.501
s10.667 -28.834 15 -48.501s6.5 -43.834 6.5 -72.501c0 -10.667 -1.66699 -22.667 -5 -36s-7.5 -26.166 -12.5 -38.499s-10.833 -23.833 -17.5 -34.5s-13.334 -19 -20.001 -25c-7.33301 10 -15.833 18.167 -25.5 24.5s-14.5 11.166 -14.5 14.499v213z" />
    <glyph glyph-name="brokenbar" unicode="&#xa6;" horiz-adv-x="121" 
d="M40 0h45v270h-45v-270zM40 450h45v270h-45v-270z" />
    <glyph glyph-name="section" unicode="&#xa7;" horiz-adv-x="337" 
d="M85 371c-23.333 -9.33301 -43.332 -23.3301 -59.999 -41.9971s-25 -44 -25 -76c0 -29.333 6.16699 -53.166 18.5 -71.499s28 -33.333 47 -45s39.333 -21.167 61 -28.5s42 -14.833 61 -22.5s34.667 -16.334 47 -26.001s18.5 -22.834 18.5 -39.501
c0 -12 -2.83301 -22.833 -8.5 -32.5s-13.167 -17.834 -22.5 -24.501s-20 -11.834 -32 -15.501s-24 -5.5 -36 -5.5c-16 0 -30.333 1.66699 -43 5s-23.334 7 -32.001 11s-15.167 7.83301 -19.5 11.5s-6.5 6.16699 -6.5 7.5c10.667 0 18.667 3.66699 24 11s8 15.666 8 24.999
s-3.33301 16.5 -10 21.5s-14.667 7.5 -24 7.5c-8.66699 0 -16 -2.66699 -22 -8s-9 -13.666 -9 -24.999c0 -8 2.16699 -16.667 6.5 -26s11.666 -18.166 21.999 -26.499s24 -15.166 41 -20.499s38.5 -8 64.5 -8c22 0 41.667 4 59 12s32 18.5 44 31.5s21.167 28.167 27.5 45.5
s9.5 35.333 9.5 54c0 28.667 -6.83301 53 -20.5 73s-35.5 34.333 -65.5 43c23.333 9.33301 43.333 23.333 60 42s25 44 25 76c0 29.333 -6.16699 52.666 -18.5 69.999s-28 31.333 -47 42s-39.333 19.334 -61 26.001s-42 13.667 -61 21s-34.667 16.5 -47 27.5
s-18.5 26.5 -18.5 46.5c0 12 2.83301 22.833 8.5 32.5s13.167 17.834 22.5 24.501s20 11.834 32 15.501s24 5.5 36 5.5c16 0 30.333 -1.66699 43 -5s23.334 -7 32.001 -11s15.167 -7.83301 19.5 -11.5s6.5 -6.16699 6.5 -7.5c-10 0 -17.833 -3.83301 -23.5 -11.5
s-8.5 -15.834 -8.5 -24.501c0 -9.33301 3.33301 -16.5 10 -21.5s14.667 -7.5 24 -7.5c8.66699 0 16.167 2.66699 22.5 8s9.5 13.666 9.5 24.999c0 8 -2.16699 16.667 -6.5 26s-11.833 18.166 -22.5 26.499s-24.5 15.166 -41.5 20.499s-38.5 8 -64.5 8
c-22 0 -41.667 -4 -59 -12s-32 -18.5 -44 -31.5s-21.167 -28.167 -27.5 -45.5s-9.5 -35.333 -9.5 -54c0 -28.667 6.83301 -53 20.5 -73s35.5 -34.333 65.5 -43zM189.001 193.003c-13.333 2 -29.166 5.66602 -47.499 10.999s-36 12 -53 20s-31.5 17.167 -43.5 27.5
s-18 21.833 -18 34.5c0 8.66699 2.33301 17 7 25s10.667 15.333 18 22s15.5 12.834 24.5 18.501s18.167 10.167 27.5 13.5c13.333 -2.66699 29.166 -6.5 47.499 -11.5s36 -11.5 53 -19.5s31.5 -17.167 43.5 -27.5s18 -21.833 18 -34.5c0 -17.333 -8 -33 -24 -47
s-33.667 -24.667 -53 -32z" />
    <glyph glyph-name="dieresis" unicode="&#xa8;" horiz-adv-x="381" 
d="M247 535c0 -8 3.83398 -15.998 11.501 -23.998s14.667 -14.333 21 -19s10.166 -7.33398 11.499 -8.00098c4.66699 0 12 2.5 22 7.5s20.167 11.333 30.5 19s19.333 16 27 25s11.5 17.833 11.5 26.5c0 4 -3.16699 4.5 -9.5 1.5s-13.5 -5.5 -21.5 -7.5
s-15.167 -1.5 -21.5 1.5s-9.5 12.5 -9.5 28.5c0 4 -3.83301 4.66699 -11.5 2s-16 -7.16699 -25 -13.5s-17.333 -13.333 -25 -21s-11.5 -13.834 -11.5 -18.501zM4.00098 535.002c0 -6 1.83496 -11.999 5.50195 -17.999s8 -11.5 13 -16.5s10 -9 15 -12s8.83301 -4.5 11.5 -4.5
l14 7.5c9.33301 5 19.833 11.333 31.5 19s22.167 16 31.5 25s14 17.833 14 26.5c0 4 -3.16699 4.5 -9.5 1.5s-13.333 -5.5 -21 -7.5s-14.667 -1.5 -21 1.5s-9.5 12.5 -9.5 28.5c0 4 -3.83301 4.66699 -11.5 2s-16.334 -7.16699 -26.001 -13.5s-18.334 -13.333 -26.001 -21
s-11.5 -13.834 -11.5 -18.501z" />
    <glyph glyph-name="copyright" unicode="&#xa9;" horiz-adv-x="558" 
d="M490 385c0 40.667 -7 76.334 -21 107.001s-32.5 56.167 -55.5 76.5s-49.167 35.5 -78.5 45.5s-59.333 15 -90 15s-60.667 -5 -90 -15s-55.5 -25.167 -78.5 -45.5s-41.5 -45.833 -55.5 -76.5s-21 -66.334 -21 -107.001s7 -76.334 21 -107.001s32.5 -56.334 55.5 -77.001
s49.167 -36 78.5 -46s59.333 -15 90 -15s60.667 5 90 15s55.5 25.333 78.5 46s41.5 46.334 55.5 77.001s21 66.334 21 107.001zM25 385c0 48.667 10.8311 89.5 32.498 122.5s48.834 57.667 81.501 74s67.834 24.333 105.501 24s72.834 -8.5 105.501 -24.5
s59.834 -40.5 81.501 -73.5s32.5 -73.833 32.5 -122.5s-10.833 -89.334 -32.5 -122.001s-48.834 -57.167 -81.501 -73.5s-68 -24.5 -106 -24.5c-37.333 0 -72.333 8.16699 -105 24.5s-59.834 40.833 -81.501 73.5s-32.5 73.334 -32.5 122.001zM334.998 475l19.002 20.0059
c-14 14 -30.333 25 -49 33s-38.667 12 -60 12s-41.333 -4 -60 -12s-35 -18.833 -49 -32.5s-25.167 -29.834 -33.5 -48.501s-12.5 -38.667 -12.5 -60s4.16699 -41.333 12.5 -60s19.5 -34.834 33.5 -48.501s30.333 -24.5 49 -32.5s38.667 -12 60 -12s41.166 4 59.499 12
s34.5 18.667 48.5 32l-20 19c-24 -24 -53.333 -36 -88 -36c-17.333 0 -33.666 3.33301 -48.999 10s-28.666 15.667 -39.999 27s-20.333 24.666 -27 39.999s-10 31.666 -10 48.999s3.33301 33.666 10 48.999s15.667 28.666 27 39.999s24.666 20.333 39.999 27
s31.666 10 48.999 10s33.666 -3.33301 48.999 -10s29 -16 41 -28z" />
    <glyph glyph-name="ordfeminine" unicode="&#xaa;" horiz-adv-x="255" 
d="M58 389c0 -8.66699 2 -17.6719 6 -27.0049s8.66699 -17.666 14 -24.999s10.5 -13.5 15.5 -18.5s8.16699 -7.5 9.5 -7.5c2 0 5.16699 1.66699 9.5 5s9 7.33301 14 12l14 13c4.33301 4 7.16602 6.66699 8.49902 8c4.66699 5.33301 8.33398 12.5 11.001 21.5
s5.33398 13.5 8.00098 13.5l0.5 -5.5c0.333008 -3.66699 1 -8 2 -13s2.66699 -10.167 5 -15.5s5.5 -10 9.5 -14v-15c0 -1.33301 -1.16699 -3.66602 -3.5 -6.99902s-3.16602 -5 -2.49902 -5c2 0 6.83301 2.16699 14.5 6.5s16 9.33301 25 15l24 15.5
c7 4.66699 10.5 7.33398 10.5 8.00098c0 1.33301 -1.5 1.83301 -4.5 1.5s-5.16699 -0.5 -6.5 -0.5c-3.33301 0 -6.83301 2.33301 -10.5 7s-7 10.5 -10 17.5s-5.5 14.5 -7.5 22.5s-3 15.333 -3 22v108c0 10 2.16699 17.667 6.5 23s6.5 9 6.5 11c0 4 -3.66699 6.5 -11 7.5
s-13.333 4.5 -18 10.5c-3.33301 5.33301 -5.83301 10.5 -7.5 15.5s-4.16699 7.5 -7.5 7.5c-2 0 -6.5 -2.16699 -13.5 -6.5s-13.167 -8.83301 -18.5 -13.5c-3.33301 -2.66699 -8.33301 -5.16699 -15 -7.5s-13.834 -5.16602 -21.501 -8.49902s-15.334 -7.33301 -23.001 -12
s-14.167 -10.667 -19.5 -18c-2.66699 -3.33301 -4.66699 -8.66602 -6 -15.999s-2.33301 -15.333 -3 -24s-1.16699 -17 -1.5 -25s-0.5 -14.333 -0.5 -19v-68zM159 410.995c0 -2 -1 -5.66797 -3 -11.001s-4.33301 -11 -7 -17s-5.5 -11.333 -8.5 -16s-5.16699 -7 -6.5 -7
c-4 0 -9.5 4.83301 -16.5 14.5s-10.5 27.167 -10.5 52.5v92c0 17.333 3.83301 30 11.5 38s14.167 12 19.5 12c0.666992 0 3 -1.66699 7 -5s7.66699 -6.66602 11 -9.99902c1.33301 -2.66699 2.66602 -6.83398 3.99902 -12.501s2 -11.5 2 -17.5v-83
c0 -6 -0.166992 -11.167 -0.5 -15.5s-1.16602 -9.16602 -2.49902 -14.499zM220 196.994l22 33h-220l-22 -33h220z" />
    <glyph glyph-name="guillemotleft" unicode="&#xab;" horiz-adv-x="562" 
d="M239 236l-95.002 -15.999c-2.66699 -12 -6.16699 -22.333 -10.5 -31s-11.333 -17 -21 -25s-22.834 -15.833 -39.501 -23.5s-38.334 -16.167 -65.001 -25.5l22 -7c14.667 -4.66699 31.834 -11.5 51.501 -20.5s39.167 -20 58.5 -33s34 -27.833 44 -44.5l87 20
c-9.33301 16 -22.166 30.167 -38.499 42.5s-32.333 22.666 -48 30.999s-29.167 14.833 -40.5 19.5l-17 7c19.333 8 35.333 15.5 48 22.5s23.334 14.5 32.001 22.5s15.334 16.833 20.001 26.5s8.66699 21.167 12 34.5zM454.998 236.001l-95.002 -15.999
c-2.66699 -12 -6.16699 -22.333 -10.5 -31s-11.333 -17 -21 -25s-22.834 -15.833 -39.501 -23.5s-38.334 -16.167 -65.001 -25.5l22 -7c14.667 -4.66699 31.834 -11.5 51.501 -20.5s39.167 -20 58.5 -33s34 -27.833 44 -44.5l87 20c-9.33301 16 -22.166 30.167 -38.499 42.5
s-32.333 22.666 -48 30.999s-29.167 14.833 -40.5 19.5l-17 7c19.333 8 35.333 15.5 48 22.5s23.334 14.5 32.001 22.5s15.334 16.833 20.001 26.5s8.66699 21.167 12 34.5z" />
    <glyph glyph-name="logicalnot" unicode="&#xac;" horiz-adv-x="477" 
d="M136 420l138.001 -0.00292969v-273c0 -18.667 2.66699 -36.667 8 -54s12.166 -32.833 20.499 -46.5s17.333 -24.5 27 -32.5s18.834 -12 27.501 -12v-11c3.33301 0 5.33301 0.166992 6 0.5l1 0.5l105 104l5 7c0 4 -1.66699 6 -5 6c-1.33301 0 -4.5 -2 -9.5 -6
s-10.5 -8.16699 -16.5 -12.5l-18 -12.5c-6 -4 -11 -6 -15 -6c-2.66699 0 -7.16699 3 -13.5 9s-12.833 14.667 -19.5 26s-12.5 25 -17.5 41s-7.5 34.333 -7.5 55v217h50c9.33301 0 16.833 2.16699 22.5 6.5s10 9.33301 13 15s5 11.334 6 17.001s1.5 9.83398 1.5 12.501
c0 0.666992 -0.333008 1 -1 1h-92c0.666992 22.667 3.66699 40.834 9 54.501s11 24.167 17 31.5s11.667 12.333 17 15s8.66602 4 9.99902 4c4.66699 0 7 2 7 6c0 4.66699 -4.66699 7 -14 7c-7.33301 0 -16.666 -3.5 -27.999 -10.5s-22.833 -16.167 -34.5 -27.5
s-22.5 -24 -32.5 -38s-17.667 -28 -23 -42h-154c-2.66699 14 -5.5 30.333 -8.5 49s-4.5 33.667 -4.5 45c0 19.333 6.5 31.333 19.5 36s26.833 7 41.5 7c8.66699 0 16 -3.33301 22 -10s10.833 -13.834 14.5 -21.501s6.33398 -14.834 8.00098 -21.501s3.16699 -10 4.5 -10
c0.666992 0 2 1.83301 4 5.5l6.5 12l7.5 13.5c2.66699 4.66699 5.33398 8 8.00098 10c5.33301 4 11.833 8.33301 19.5 13s14 8.33398 19 11.001s7.83301 4.33398 8.5 5.00098l-10 4c-6.66699 2.66699 -14.334 7.33398 -23.001 14.001
c-12.667 9.33301 -21.334 18.666 -26.001 27.999l-7 14l-9 -7.5c-6 -5 -13.5 -10.667 -22.5 -17s-18.333 -12 -28 -17s-17.834 -7.5 -24.501 -7.5c-16 0 -29.167 -5.33301 -39.5 -16s-18.333 -24 -24 -40s-9.66699 -33.5 -12 -52.5s-3.5 -37.167 -3.5 -54.5
c-6.66699 -5.33301 -14 -12 -22 -20s-12 -16 -12 -24h34v-110c0 -2.66699 0.666992 -12.167 2 -28.5s3.16602 -36 5.49902 -59l7.5 -73.5c2.66699 -26 5.5 -50 8.5 -72s5.66699 -40.333 8 -55s4.5 -22 6.5 -22c1.33301 -0 4.16602 4.83301 8.49902 14.5
s8.83301 22.667 13.5 39s9.33398 35 14.001 56s8.5 43 11.5 66s4.83301 46.167 5.5 69.5s-0.666016 45 -3.99902 65z" />
    <glyph glyph-name="registered" unicode="&#xae;" horiz-adv-x="513" 
d="M508 521c0 43.333 -9.66699 79.5 -29 108.5s-43.5 50.833 -72.5 65.5s-60.5 22 -94.5 22c-33.333 0 -64.5 -7.33301 -93.5 -22s-53.167 -36.5 -72.5 -65.5s-29 -65.167 -29 -108.5s9.66699 -79.5 29 -108.5s43.5 -50.833 72.5 -65.5s60.167 -22 93.5 -22
c34 0 65.5 7.33301 94.5 22s53.167 36.5 72.5 65.5s29 65.167 29 108.5zM137 521c0 39.333 8.66699 72 26 98s39 45.5 65 58.5s54.333 19.5 85 19.5s59 -6.5 85 -19.5s47.667 -32.5 65 -58.5s26 -58.667 26 -98s-8.66699 -72 -26 -98s-39 -45.5 -65 -58.5
s-54.333 -19.5 -85 -19.5s-59 6.5 -85 19.5s-47.667 32.5 -65 58.5s-26 58.667 -26 98zM242 383l27 0.00195312v144h36l63 -144h27l-63 144c17.333 0 32.166 6.16699 44.499 18.5s18.5 27.166 18.5 44.499s-6.66699 32.166 -20 44.499s-27.666 18.5 -42.999 18.5h-90v-270z
M269 554.002l0.000976562 71.999h63c10 0 18.5 -3.5 25.5 -10.5s10.5 -15.5 10.5 -25.5c0 -9.33301 -3.83301 -17.666 -11.5 -24.999s-15.834 -11 -24.501 -11h-63z" />
    <glyph glyph-name="macron" unicode="&#xaf;" horiz-adv-x="445" 
d="M15 666h314c12.667 0 25.167 2.16699 37.5 6.5s23.5 9.5 33.5 15.5s18 12 24 18s9 10.667 9 14c0 2 -4.33301 2 -13 0s-18.167 -3.66699 -28.5 -5s-26.5 -2 -48.5 -2h-260c-6 0 -13.667 -1.5 -23 -4.5s-18.5 -6.66699 -27.5 -11s-16.667 -8.83301 -23 -13.5
s-9.5 -8.66699 -9.5 -12c0 -4 5 -6 15 -6z" />
    </font>
</defs>
</svg>
